<?xml version="1.0" standalone="no"?>
<!DOCTYPE svg PUBLIC "-//W3C//DTD SVG 1.1//EN" "http://www.w3.org/Graphics/SVG/1.1/DTD/svg11.dtd" >
<!--
2018-11-13: Created with FontForge (http://fontforge.org)
-->
<svg xmlns="http://www.w3.org/2000/svg" xmlns:xlink="http://www.w3.org/1999/xlink" version="1.1">
<metadata>
Created by FontForge 20160405 at Tue Nov 13 09:57:14 2018
 By Apache
Copyright (c) 2018, Apache
</metadata>
<defs>
<font id="Flaticon" horiz-adv-x="512" >
  <font-face 
    font-family="Flaticon"
    font-weight="400"
    font-stretch="normal"
    units-per-em="512"
    panose-1="2 0 5 3 0 0 0 0 0 0"
    ascent="448"
    descent="-64"
    bbox="-0.00146484 -64.0127 512.007 448.001"
    underline-thickness="25.6"
    underline-position="-51.2"
    unicode-range="U+0020-F180"
  />
    <missing-glyph />
    <glyph glyph-name="space" unicode=" " horiz-adv-x="200" 
 />
    <glyph glyph-name="uniF12E" unicode="&#xf12e;" 
d="M339.833 425.494c94.9365 0 172.165 -77.2363 172.167 -172.166v-7.48633c0 -94.9307 -77.2285 -172.166 -172.165 -172.166h-86.3164l-39.5664 -104.577c-2.41797 -6.37305 -8.51953 -10.5938 -15.3408 -10.5938c-6.81348 0 -12.9229 4.22266 -15.332 10.5938
l-40.5439 107.157c-82.0645 14.0898 -142.735 85.2715 -142.735 169.587v7.48633c0 94.9277 77.2285 172.165 172.166 172.165h167.667zM479.204 245.843v0l0.00195312 7.48828c0 76.8496 -62.5205 139.372 -139.372 139.372h-167.667
c-76.8516 0 -139.373 -62.5205 -139.373 -139.372v-7.48633c0 -71.0088 53.1689 -130.52 123.673 -138.431c6.11621 -0.682617 11.3291 -4.73047 13.5059 -10.4873l28.6387 -75.6924l28.2461 74.6436c2.4082 6.37305 8.51758 10.5928 15.3311 10.5928h97.6445
c76.8496 0 139.371 62.5186 139.371 139.372z" />
    <glyph glyph-name="uniF17A" unicode="&#xf17a;" 
d="M460.8 448c28.1602 0 51.2002 -23.04 51.2002 -51.2002v-409.6c0 -28.1602 -23.04 -51.2002 -51.2002 -51.2002h-409.6c-28.1602 0 -51.2002 23.04 -51.2002 51.2002v307.2c0 12.7998 12.7998 25.5996 25.5996 25.5996c12.8008 0 25.6006 -12.7998 25.6006 -25.5996
v-281.601c0 -15.3594 12.7998 -25.5996 25.5996 -25.5996s25.6006 10.2402 25.6006 25.5996v384c0 28.1602 23.04 51.2002 51.1992 51.2002h307.2zM332.8 192c12.7998 0 25.6006 10.2402 25.6006 25.5996c0 12.8008 -12.8008 25.6006 -25.6006 25.6006h-153.6
c-12.7998 0 -25.6006 -12.7998 -25.6006 -25.6006c0 -15.3594 12.8008 -25.5996 25.6006 -25.5996h153.6zM435.2 294.4c12.7998 0 25.5996 10.2393 25.5996 25.5996c0 12.7998 -12.7998 25.5996 -25.5996 25.5996h-256c-12.7998 0 -25.6006 -12.7998 -25.6006 -25.5996
c0 -15.3604 12.8008 -25.5996 25.6006 -25.5996h256z" />
    <glyph glyph-name="uniF118" unicode="&#xf118;" 
d="M111 210c-11.0459 0 -20 8.9541 -20 20s8.9541 20 20 20h290c11.0459 0 20 -8.9541 20 -20s-8.9541 -20 -20 -20h-290zM111 302c-11.0459 0 -20 8.9541 -20 20s8.9541 20 20 20h290c11.0459 0 20 -8.9541 20 -20s-8.9541 -20 -20 -20h-290zM111 118
c-11.0459 0 -20 8.9541 -20 20s8.9541 20 20 20h290c11.0459 0 20 -8.9541 20 -20s-8.9541 -20 -20 -20h-290zM492 448c11.0459 0 20 -8.9541 20 -20v-396c0 -11.0459 -8.9541 -20 -20 -20h-176.977l-42.1123 -66.6797
c-3.66504 -5.80176 -10.0469 -9.32031 -16.9102 -9.32031s-13.2451 3.51758 -16.9102 9.32031l-42.1143 66.6797h-176.977c-11.0459 0 -20 8.9541 -20 20v396c0 11.0459 8.9541 20 20 20h472zM472 52v356h-432v-356h168c6.86328 0 13.2451 -3.51758 16.9102 -9.32031
l31.0898 -49.2256l31.0898 49.2256c3.66504 5.80176 10.0479 9.32031 16.9102 9.32031h168z" />
    <glyph glyph-name="uniF164" unicode="&#xf164;" 
d="M145.067 311.458c-4.71973 0 -8.5332 3.82324 -8.5332 8.5332s3.81348 8.5332 8.5332 8.5332h102.399c4.71875 0 8.5332 -3.82324 8.5332 -8.5332s-3.81445 -8.5332 -8.5332 -8.5332h-102.399zM196.267 174.925c4.71973 0 8.5332 -3.82324 8.5332 -8.5332
s-3.81348 -8.53223 -8.5332 -8.53223h-68.2666c-4.71875 0 -8.5332 3.82227 -8.5332 8.53223s3.81445 8.5332 8.5332 8.5332h68.2666zM170.667 217.591c0 -4.70996 -3.81543 -8.5332 -8.5332 -8.5332h-51.2002c-4.71875 0 -8.53223 3.82324 -8.53223 8.5332
s3.81348 8.5332 8.53223 8.5332h51.2002c4.71875 0 8.5332 -3.82324 8.5332 -8.5332zM110.933 260.258c-4.71875 0 -8.53223 3.82324 -8.53223 8.5332s3.81348 8.5332 8.53223 8.5332h119.468c4.71875 0 8.53223 -3.82324 8.53223 -8.5332
s-3.81348 -8.5332 -8.53223 -8.5332h-119.468zM264.533 174.925c4.71875 0 8.53418 -3.82324 8.5332 -8.5332c0 -4.70996 -3.81445 -8.53223 -8.5332 -8.53223h-34.1328c-4.71973 0 -8.5332 3.82227 -8.5332 8.53223s3.81348 8.5332 8.5332 8.5332h34.1328zM386.313 109.943
c3.33594 3.32812 8.7373 3.32812 12.0742 0l18.0996 -18.1084c3.32812 -3.33594 3.32812 -8.73828 0 -12.0664c-1.67188 -1.67188 -3.85742 -2.5 -6.0332 -2.5c-2.18457 0 -4.36914 0.827148 -6.0332 2.5l-18.1074 18.1084c-3.32812 3.32812 -3.32812 8.73828 0 12.0664z
M499.499 8.82324c8.05469 -8.05566 12.501 -18.7734 12.501 -30.166c0 -11.4014 -4.44629 -22.1104 -12.501 -30.1738c-8.3125 -8.3125 -19.251 -12.4766 -30.1738 -12.4766s-21.8467 4.15625 -30.1572 12.4766l-101.12 101.11c-3.32812 3.33691 -3.32812 8.73828 0 12.0752
c3.33594 3.32812 8.73828 3.32812 12.0664 0l101.12 -101.12c9.99121 -9.98242 26.2227 -9.96582 36.1973 0.00878906c4.83008 4.83008 7.50098 11.2646 7.50098 18.0996s-2.6709 13.2607 -7.50098 18.0986l-53.751 53.7432l-18.0303 -18.125
c-3.31934 -3.35254 -8.71191 -3.3623 -12.0664 -0.0341797c-3.34473 3.32812 -3.3623 8.7207 -0.0341797 12.0664l24.0645 24.2012c1.60449 1.60352 3.78027 2.50879 6.04199 2.50879h0.0078125c2.26953 0 4.43652 -0.896484 6.0332 -2.5zM409.6 243.191
c0 -112.922 -91.8779 -204.801 -204.8 -204.801s-204.8 91.8779 -204.8 204.801c0 112.922 91.8779 204.8 204.8 204.8s204.8 -91.8779 204.8 -204.8zM204.8 55.458c103.519 0 187.733 84.2158 187.733 187.734c0 103.518 -84.2148 187.732 -187.733 187.732
c-103.518 0 -187.732 -84.2158 -187.732 -187.733c0 -103.519 84.2148 -187.733 187.732 -187.733zM204.8 413.858c94.1064 0 170.667 -76.5605 170.667 -170.666c0 -94.1064 -76.5605 -170.667 -170.667 -170.667c-94.1055 0 -170.667 76.5596 -170.667 170.666
c0 94.1055 76.5615 170.667 170.667 170.667zM204.8 89.5908c84.6934 0 153.601 68.9072 153.601 153.601c0 84.6924 -68.9072 153.6 -153.601 153.6c-84.6924 0 -153.6 -68.9072 -153.6 -153.6c0 -84.6934 68.9072 -153.601 153.6 -153.601zM298.667 226.125
c4.71875 0 8.5332 -3.82324 8.5332 -8.5332s-3.81445 -8.5332 -8.5332 -8.5332h-102.4c-4.71875 0 -8.53223 3.82324 -8.53223 8.5332s3.81348 8.5332 8.53223 8.5332h102.4zM298.667 277.325c4.71875 0 8.5332 -3.82324 8.5332 -8.5332s-3.81445 -8.5332 -8.5332 -8.5332
h-34.1328c-4.71875 0 -8.5332 3.82324 -8.5332 8.5332s3.81445 8.5332 8.5332 8.5332h34.1328z" />
    <glyph glyph-name="uniF109" unicode="&#xf109;" 
d="M469.223 266.738c4.30859 -3.79688 6.77637 -9.2627 6.77637 -15.0049v-295.733c0 -11.0459 -8.9541 -20 -20 -20h-399.999c-11.0459 0 -20 8.9541 -20 20v295.733c0 5.74219 2.46777 11.208 6.77734 15.0049l199.999 176.266c7.55762 6.66113 18.8887 6.66113 26.4473 0
zM310.999 -24v136.265h-109.999v-136.265h109.999zM435.999 -24v266.701l-180 158.639l-179.999 -158.639v-266.701h85v156.265c0 11.0459 8.9541 20 20 20h149.999c11.0459 0 20 -8.9541 20 -20v-156.265h85z" />
    <glyph glyph-name="uniF10C" unicode="&#xf10c;" 
d="M170.639 162.683c-2.21777 0 -4.42969 0.861328 -6.10254 2.56836c-3.30176 3.3623 -3.23438 8.77344 0.136719 12.0674l224.258 219.58l-2.44043 2.44043c-8.04785 8.03906 -14.0215 8.03906 -22.0693 0l-119.477 -119.476
c-1.66406 -1.66406 -3.84766 -2.5 -6.0332 -2.5c-2.18457 0 -4.36914 0.835938 -6.0332 2.5c-3.33789 3.33691 -3.33789 8.72949 0 12.0674l119.476 119.476c7.27051 7.27832 15.0283 10.9736 23.0244 11h0.0771484c8.03027 0 15.8057 -3.70312 23.1016 -11
l8.58496 -8.58594c0.00878906 -0.0078125 0.0166016 -0.0078125 0.0166016 -0.0166016l0.00976562 -0.00878906l38.1299 -38.1201c3.32812 -3.33789 3.32812 -8.73926 0 -12.0762c-3.33789 -3.32812 -8.73926 -3.32812 -12.0762 0l-32.2324 32.2412l-224.385 -219.717
c-1.65625 -1.62207 -3.81543 -2.44043 -5.96582 -2.44043zM102.367 4.27441c-6.31543 0 -12.1533 1.83398 -17.2412 4.83984l-70.6016 -70.6113c-0.136719 -0.136719 -0.31543 -0.178711 -0.452148 -0.298828c-0.580078 -0.511719 -1.19531 -0.921875 -1.88672 -1.2627
c-0.263672 -0.119141 -0.50293 -0.273438 -0.775391 -0.375c-0.938477 -0.341797 -1.90332 -0.563477 -2.91895 -0.563477c-0.963867 0 -1.94434 0.162109 -2.91797 0.511719c-0.0507812 0.0263672 -0.0849609 0.0605469 -0.12793 0.0771484
c-0.511719 0.204102 -0.948242 0.571289 -1.41699 0.870117c-0.495117 0.316406 -1.04102 0.563477 -1.44238 0.956055c-0.0429688 0.0419922 -0.09375 0.0507812 -0.12793 0.0849609c-0.298828 0.297852 -0.43457 0.682617 -0.673828 1.01562
c-0.391602 0.52832 -0.819336 1.02344 -1.0752 1.62109c-0.22168 0.511719 -0.282227 1.0498 -0.401367 1.5791c-0.118164 0.537109 -0.297852 1.04883 -0.306641 1.60352c-0.0166016 0.640625 0.154297 1.25586 0.282227 1.88672
c0.0849609 0.417969 0.0419922 0.828125 0.196289 1.24609c0.333008 0.929688 34.084 94.3096 50.8203 186.357c0.827148 4.5918 5.17188 7.68848 9.79688 6.88672c50.3086 -8.38867 72.3428 9.12305 77.9072 14.6875c3.33691 3.33594 8.72949 3.33594 12.0674 0
l42.6699 -42.6709c3.33789 -3.33594 3.33789 -8.72949 0 -12.0664c-3.33594 -3.33691 -8.73047 -3.33691 -12.0664 0l-37.1494 37.1572c-11.6582 -8.42383 -36.1416 -20.2354 -77.9414 -15.1318c-10.8037 -56.2471 -27.2998 -111.897 -38.377 -146.35l44.8545 44.8545
c-2.99512 5.07812 -4.83008 10.915 -4.83008 17.2305c0 18.8252 15.3184 34.1357 34.1357 34.1357s34.1357 -15.3105 34.1357 -34.1357s-15.3184 -34.1357 -34.1357 -34.1357zM102.367 55.4785c-9.41406 0 -17.0684 -7.6543 -17.0684 -17.0684
s7.65527 -17.0684 17.0684 -17.0684c9.41406 0 17.0684 7.6543 17.0684 17.0684s-7.65527 17.0684 -17.0684 17.0684zM500.845 420.001c7.2207 -7.21191 11.1807 -16.958 11.1543 -27.4375c-0.0263672 -10.4365 -3.98535 -20.1318 -11.1543 -27.2998l-281.408 -290.122
c-5.6582 -5.6582 -23.1621 -27.7188 -14.7812 -77.9932c0.768555 -4.60742 -2.29492 -8.96973 -6.88672 -9.80566c-42.3115 -7.68945 -95.1797 -20.8994 -125.688 -31.4053c-0.922852 -0.314453 -1.86914 -0.46875 -2.78223 -0.46875
c-3.54199 0 -6.85254 2.21875 -8.06543 5.76074c-1.53516 4.45508 0.828125 9.31055 5.2832 10.8467c29.2969 10.0869 78.5723 22.5801 120.107 30.5508c-6.40039 52.6553 13.9697 77.8047 20.6523 84.4873l281.417 290.122
c8.23438 8.24414 8.23438 22.5469 0.0849609 30.6963l-17.0684 17.0684c-3.76367 3.76367 -9.31934 5.94727 -15.2168 5.97363h-0.136719c-5.88867 0 -11.4434 -2.17578 -15.25 -5.97363l-12.6387 -12.8174c-3.31152 -3.3623 -8.72266 -3.39648 -12.0674 -0.0859375
c-3.3623 3.31152 -3.39648 8.71289 -0.0849609 12.0674l12.6816 12.8613c14.6367 14.627 40.2139 14.6191 54.7803 0.0429688z" />
    <glyph glyph-name="uniF111" unicode="&#xf111;" 
d="M65.8262 277.683c-4.52344 1.31445 -7.13379 6.05078 -5.81152 10.5732c27.375 94.0537 114.987 159.744 213.053 159.744c18.415 0 36.7188 -2.26074 54.3906 -6.71484c4.46289 -1.12598 7.22656 -5.59863 6.24609 -10.0947
c-2.20996 -10.1211 1.51855 -16.0518 5.13672 -21.7773c2.45801 -3.91699 5.00879 -7.96191 5.00879 -12.9277c0 -34.9531 -7.82422 -52.668 -23.2529 -52.668c-6.56934 0 -24.1572 -8.33691 -30.0195 -19.2773c-2.2793 -4.24902 -2.17578 -7.83301 0.34082 -11.6055
c4.6416 -6.95312 8.57617 -14.5742 12.0488 -21.2988c3.75488 -7.27051 10.0439 -19.4473 13.21 -20.1895c5.50391 2.70605 12.4072 16.4014 16.9814 25.4639c7.79102 15.4541 13.8496 27.8281 24.6016 27.1787c20.8047 -0.921875 28.9531 -18.5693 34.9014 -31.4541
c2.8418 -6.15234 6.06738 -13.125 9.27539 -14.7285c6.06738 -2.99512 40.1494 -0.179688 66.7051 9.18164c-18.0479 57.8311 -61.6787 105.575 -118.008 128.649c-4.36035 1.78223 -6.45117 6.7666 -4.66797 11.127c1.7832 4.35938 6.77637 6.45117 11.1357 4.65918
c63.5908 -26.0361 112.239 -81.1182 130.15 -147.338c1.10938 -4.1123 -0.980469 -8.41309 -4.89844 -10.0771c-26.2051 -11.1279 -73.626 -18.6807 -88.0469 -11.4697c-8.56641 4.28418 -12.9277 13.7129 -17.1426 22.8447
c-5.72559 12.4072 -9.95898 20.2402 -18.6201 21.4189c-2.64453 -2.80859 -7.1084 -11.6484 -10.1455 -17.6738c-6.89551 -13.6709 -14.0293 -27.8184 -23.9795 -32.7939c-3.12305 -1.56055 -6.00684 -2.26074 -8.67773 -2.26074
c-12.6387 0 -20.6855 15.582 -27.9385 29.6279c-3.43066 6.63965 -6.97168 13.499 -11.085 19.6689c-5.99902 9.01172 -6.4248 19.3535 -1.18555 29.124c8.53418 15.9326 31.2314 28.2881 45.0645 28.2881c-0.0673828 0.0175781 6.1875 5 6.1875 35.6016
c-0.15332 0.280273 -1.44238 2.3291 -2.38965 3.83105c-3.41211 5.40918 -8.71191 13.833 -8.4043 26.1113c-14.0293 2.99609 -28.4336 4.50586 -42.9229 4.50586c-90.5225 0 -171.393 -60.6289 -196.668 -147.438c-1.31445 -4.53125 -6.05078 -7.13379 -10.5732 -5.81152z
M375.433 221.696c7.08203 2.02148 16.793 4.7959 26.5029 4.7959c10.1211 0 18.2871 -3.04688 24.2861 -9.03711c4.4043 -4.41211 6.61426 -9.17285 6.55469 -14.1572c-0.0849609 -8.43945 -6.23828 -14.3193 -12.7402 -20.5566
c-5.60645 -5.35938 -11.4014 -10.9062 -13.8242 -18.1592c-6.13477 -18.415 -24.0039 -24.9434 -37.4443 -24.9434c-8.84863 0 -16.4346 2.51758 -20.8203 6.90332c-6.37402 6.37402 -20.7021 13.5342 -34.5605 20.4629c-9.76953 4.88965 -11.793 12.834 -10.4189 18.6367
c1.94629 8.26074 10.6582 14.2422 20.7188 14.2422c4.13965 0 8.19238 -0.97168 12.0498 -2.90039c2.39746 0.0683594 6.16113 4.63379 8.24219 7.17676c5.45312 6.66406 12.9287 15.7949 24.7217 15.7949c0.895508 0.0683594 4.2666 1.04102 6.73242 1.74121z
M415.71 203.529c-0.0507812 0 -0.375977 0.665039 -1.56152 1.86035c-2.71387 2.71289 -6.70703 4.03613 -12.2119 4.03613c-7.32129 0 -15.3594 -2.2959 -21.8193 -4.13867c-4.86426 -1.39062 -8.38965 -2.39844 -11.418 -2.39844
c-3.70312 0 -7.6709 -4.85449 -11.5205 -9.54004c-5.25684 -6.42578 -11.2217 -13.7129 -20.668 -13.7129c-2.81543 0 -5.64844 0.700195 -8.4043 2.08203c-2.61133 1.29688 -5.58105 1.25391 -7.18555 0.597656
c0.0341797 -0.0175781 0.0605469 -0.0263672 0.09375 -0.0429688c15.7705 -7.87598 30.6602 -15.3252 39.0068 -23.6719c0.648438 -0.579102 3.77148 -1.89355 8.74609 -1.89355c2.80859 0 17.042 0.639648 21.2578 13.2686c3.75391 11.2646 11.7666 18.9365 18.21 25.0977
c2.82324 2.70508 7.07324 6.77441 7.47461 8.45605zM492.817 256.836c1.40723 -10.1543 2.11523 -20.4795 2.11719 -30.7041c0 -122.334 -99.5322 -221.867 -221.866 -221.867c-1.61328 0 -3.19238 0.460938 -4.55762 1.31445
c-22.5107 14.208 -75.2295 47.4707 -54.7842 95.1807c18.0312 42.0781 4.07031 55.1436 -3.43848 62.1572c-0.777344 0.724609 -1.48535 1.39062 -2.1084 2.01367c-1.0918 1.09277 -2.88379 2.16699 -4.78711 3.30273c-7.35449 4.41113 -19.6592 11.8008 -11.9883 34.8496
c3.42188 10.2656 8.3877 15.5137 12.373 19.7383c5.37598 5.68262 9.25879 9.7959 9.25879 29.0557c0 7.38965 -3.07227 12.3398 -9.38672 15.1299c-8.55078 3.78906 -19.9766 2.06543 -24.4658 -2.01367c-1.56934 -1.4248 -1.29688 -2.21777 -1.02344 -3.06348
c8.64355 -25.873 -6.95508 -58.4961 -39.7402 -83.0811c-12.2705 -9.20703 -24.7129 -8.79785 -33.2891 1.08398c-11.9639 13.79 -13.0391 43.8359 -3.25098 59.1191c-6.25488 1.91211 -18.5176 3.58398 -32.9561 3.56738
c-0.452148 -5.33301 -0.657227 -10.5645 -0.657227 -16.4863c0 -94.4375 63.9404 -176.204 155.494 -198.829c4.57422 -1.12598 7.37305 -5.75098 6.23828 -10.3252c-1.12598 -4.57324 -5.76758 -7.37207 -10.3252 -6.2373
c-99.1914 24.5078 -168.474 113.075 -168.474 215.39c0 9.31055 0.459961 17.0498 1.54395 25.873c0.511719 4.12988 3.9248 7.28809 8.08105 7.48438c8.74609 0.410156 52.8379 1.62207 59.75 -14.0547c2.10742 -4.76953 0.861328 -10.1191 -3.32812 -14.3096
c-6.25391 -6.24609 -6.84277 -31.2227 0.777344 -40.0039c1.22852 -1.4082 3.27637 -3.77246 10.1543 1.38184c25.9756 19.4814 39.876 45.8154 33.792 64.0342c-2.57715 7.73926 -0.485352 15.4277 5.72656 21.0771c9.94922 9.02832 28.7646 11.2295 42.8535 5.00098
c12.4248 -5.4873 19.5498 -16.6914 19.5498 -30.7373c0 -24.1328 -6.03223 -32.4346 -13.9258 -40.7812c-3.40527 -3.60938 -6.35645 -6.72363 -8.57617 -13.4053c-3.35254 -10.0615 -1.67188 -11.0684 4.57422 -14.8145c2.56934 -1.54395 5.4873 -3.30176 8.07324 -5.87891
l1.69824 -1.61328c9.0459 -8.46484 30.2168 -28.2539 7.4668 -81.3564c-12.6719 -29.5596 15.7686 -53.2998 46.1143 -72.6787c111.803 1.32324 202.342 92.6729 202.342 204.783c0 9.43848 -0.657227 18.9873 -1.9541 28.3652
c-0.649414 4.66797 2.61914 8.97656 7.28711 9.62598c4.59863 0.639648 8.96777 -2.61133 9.61719 -7.28711zM415.667 34.3984c3.78906 2.81543 9.12207 2.03027 11.9395 -1.74121c2.81543 -3.78906 2.03809 -9.13086 -1.74121 -11.9473
c-42.1211 -31.3857 -91.8623 -48.5381 -144.266 -50.2363v-25.9404c0 -4.70996 -3.82227 -8.5332 -8.53223 -8.5332s-8.5332 3.82324 -8.5332 8.5332v25.8125c-137.216 4.53223 -247.467 117.487 -247.467 255.787c0 4.70996 3.82227 8.5332 8.53223 8.5332
s8.5332 -3.82324 8.5332 -8.5332c0 -131.754 107.188 -238.933 238.934 -238.933c51.8486 0 101.162 16.3242 142.601 47.1982zM279.595 102.255c3.58398 0 6.90332 -1.33984 9.3457 -3.77051c4.91504 -4.9248 9.12988 -11.6748 11.2549 -18.0576
c3.15723 -9.44531 1.77441 -17.7744 -3.8916 -23.4404c-5.10254 -5.09473 -12.6631 -8.02148 -20.7529 -8.02148s-15.6504 2.92676 -20.7451 8.02148c-5.40918 5.41016 -6.46777 13.4229 -2.90918 22.0156c4.55664 10.999 17.0488 23.2529 27.6982 23.2529zM284.237 69.0596
c0.801758 0.793945 0.716797 3.14941 -0.231445 5.97363c-1.06543 3.2002 -3.16602 6.80078 -5.58887 9.67676c-2.25293 -1.21973 -6.40918 -4.65137 -9.35254 -9.50586c-2.26172 -3.73828 -2.26953 -5.87109 -2.15039 -6.23828
c3.68652 -3.5918 13.5342 -3.69434 17.3232 0.09375z" />
    <glyph glyph-name="uniF119" unicode="&#xf119;" 
d="M331 230c0 13.8066 11.1934 25 25 25s25 -11.1934 25 -25s-11.1934 -25 -25 -25s-25 11.1934 -25 25zM231 230c0 13.8066 11.1934 25 25 25s25 -11.1934 25 -25s-11.1934 -25 -25 -25s-25 11.1934 -25 25zM131 230c0 13.8066 11.1934 25 25 25s25 -11.1934 25 -25
s-11.1934 -25 -25 -25s-25 11.1934 -25 25zM492 448c11.0459 0 20 -8.9541 20 -20v-396c0 -11.0459 -8.9541 -20 -20 -20h-176.977l-42.1133 -66.6797c-3.66504 -5.80273 -10.0479 -9.32031 -16.9102 -9.32031s-13.2451 3.51758 -16.9102 9.32031l-42.1133 66.6797h-176.977
c-11.0459 0 -20 8.9541 -20 20v396c0 11.0459 8.9541 20 20 20h472zM472 52v356h-432v-356h168c6.8623 0 13.2451 -3.51758 16.9102 -9.32031l31.0898 -49.2256l31.0898 49.2256c3.66504 5.80273 10.0479 9.32031 16.9102 9.32031h168z" />
    <glyph glyph-name="uniF125" unicode="&#xf125;" 
d="M256 448c141.155 0 256 -114.839 256 -256s-114.839 -256 -256 -256c-141.155 0 -256 114.839 -256 256s114.845 256 256 256zM256 -26.6279c120.55 0 218.628 98.0781 218.628 218.634c0 120.545 -98.0781 218.622 -218.628 218.622
s-218.628 -98.0781 -218.628 -218.628s98.0781 -218.628 218.628 -218.628zM343.202 192c10.3213 0 18.6855 -8.36523 18.6855 -18.6855c0 -10.3213 -8.36426 -18.6865 -18.6855 -18.6865h-99.6592c-10.3213 0 -18.6855 8.36523 -18.6855 18.6865v130.803
c0 10.3213 8.36426 18.6855 18.6855 18.6855s18.6855 -8.36426 18.6855 -18.6855v-112.117h80.9736z" />
    <glyph glyph-name="uniF122" unicode="&#xf122;" 
d="M437.02 373.02c48.3516 -48.3525 74.9805 -112.64 74.9805 -181.02s-26.6289 -132.667 -74.9805 -181.02c-48.3525 -48.3516 -112.64 -74.9805 -181.02 -74.9805s-132.667 26.6289 -181.02 74.9805c-48.3516 48.3525 -74.9805 112.64 -74.9805 181.02
s26.6289 132.667 74.9805 181.02c48.3525 48.3516 112.64 74.9805 181.02 74.9805s132.667 -26.6289 181.02 -74.9805zM256 -24c119.103 0 216 96.8975 216 216s-96.8975 216 -216 216s-216 -96.8975 -216 -216s96.8975 -216 216 -216zM276 212h112v-40h-152v200h40v-160z
" />
    <glyph glyph-name="uniF102" unicode="&#xf102;" 
d="M479.549 415.548c43.2686 -43.2686 43.2686 -113.672 0 -156.939c-5.14551 -5.14648 -306.432 -306.434 -316.748 -316.749c-3.78125 -3.78125 -8.94336 -5.85938 -14.1436 -5.85938h-128.655c-11.0469 0 -20.002 8.95508 -20.002 20.002v128.655
c0 0.0458984 0.00683594 0.0908203 0.00683594 0.136719c0.0341797 5.20703 2.13672 10.2939 5.85156 14.0059l316.748 316.748c43.2686 43.2686 113.672 43.2705 156.942 0zM40.0039 -23.9961h60.3643l-60.3643 60.3633v-60.3633zM148.657 -15.7109l249.919 249.92
l-36.04 36.0391l-134.325 -134.325c-7.81152 -7.81152 -20.4766 -7.81055 -28.2881 0c-7.81152 7.8125 -7.81152 20.4766 0 28.2871l134.325 134.326l-36.04 36.04l-249.919 -249.919zM451.261 286.894c27.6719 27.6719 27.6719 72.6963 0.000976562 100.367
c-27.6699 27.6699 -72.6943 27.6719 -100.367 0l-24.3984 -24.3975l100.367 -100.367z" />
    <glyph glyph-name="uniF11D" unicode="&#xf11d;" 
d="M507.607 443.605c4.24219 -4.24316 5.54785 -10.6064 3.31934 -16.1787l-192.8 -481.997c-2.2041 -5.51465 -7.45898 -9.20801 -13.3936 -9.41895c-0.178711 -0.00683594 -0.358398 -0.00976562 -0.536133 -0.00976562c-5.72852 0 -10.9785 3.27148 -13.4932 8.45508
l-92.1816 190.067l-190.067 92.1807c-5.34375 2.59277 -8.65625 8.09375 -8.44531 14.0293c0.211914 5.93652 3.90527 11.1895 9.41992 13.3945l482 192.798c5.56836 2.22852 11.9346 0.922852 16.1777 -3.32031zM52.0938 238.883l154.597 -74.9785l228.028 228.026z
M302.883 -11.9062l153.051 382.625l-228.03 -228.026z" />
    <glyph glyph-name="uniF167" unicode="&#xf167;" 
d="M231.518 -64c-127.792 0 -231.466 103.674 -231.466 231.465h231.466v-231.465zM187.458 -14.6162v138.022h-138.022c16.3916 -67.9678 70.0557 -121.527 138.022 -138.022zM280.587 448c127.792 0 231.361 -103.674 231.361 -231.465
s-103.569 -231.465 -231.466 -231.465v231.465h-231.465c0 127.791 103.674 231.465 231.569 231.465z" />
    <glyph glyph-name="uniF15F" unicode="&#xf15f;" 
d="M300.483 362.132c28.6631 -28.6621 44.4482 -66.7715 44.4482 -107.309c0 -40.5352 -15.7852 -78.6455 -44.4482 -107.308c-28.6621 -28.6631 -66.7715 -44.4492 -107.308 -44.4492c-40.5352 0 -78.6455 15.7861 -107.308 44.4492
c-28.6631 28.6621 -44.4482 66.7715 -44.4482 107.308s15.7852 78.6465 44.4482 107.309c28.6621 28.6631 66.7715 44.4482 107.308 44.4482s78.6455 -15.7852 107.308 -44.4482zM286.199 161.801c51.293 51.293 51.293 134.754 0 186.047
c-24.8467 24.8477 -57.8838 38.5312 -93.0234 38.5312s-68.1768 -13.6836 -93.0234 -38.5312c-51.293 -51.293 -51.293 -134.754 0 -186.047c24.8467 -24.8486 57.8838 -38.5322 93.0234 -38.5322s68.1768 13.6846 93.0234 38.5322zM254.604 356.006
c8.04785 -4.89453 15.5352 -10.7832 22.252 -17.501c3.94434 -3.94434 3.94434 -10.3389 0 -14.2842c-1.97168 -1.97266 -4.55762 -2.95898 -7.14258 -2.95898c-2.58398 0 -5.16992 0.986328 -7.1416 2.95898c-5.58008 5.58008 -11.791 10.4658 -18.4648 14.5244
c-4.7666 2.89844 -6.28027 9.1123 -3.38184 13.8789c2.89844 4.76562 9.1123 6.2793 13.8789 3.38184zM116.637 321.262c-2.58398 0 -5.16992 0.986328 -7.1416 2.95898c-3.94531 3.94531 -3.94531 10.3398 0 14.2842c26.6162 26.6172 64.7383 39.0449 101.979 33.2471
c5.51074 -0.859375 9.2832 -6.02246 8.42578 -11.5352c-0.859375 -5.5127 -6.02051 -9.28613 -11.5361 -8.42676c-30.8867 4.81055 -62.5098 -5.49512 -84.584 -27.5693c-1.97168 -1.97266 -4.55762 -2.95898 -7.14258 -2.95898zM141.322 171.472
c4.73438 -2.95215 6.17969 -9.18164 3.22852 -13.9131c-1.91504 -3.07129 -5.21094 -4.75879 -8.58203 -4.75879c-1.82324 0 -3.6709 0.493164 -5.33301 1.53027c-7.62305 4.75098 -14.7354 10.4092 -21.1406 16.8145c-3.94531 3.94531 -3.94531 10.3398 0 14.2842
c3.94336 3.94531 10.3389 3.94531 14.2842 0c5.32129 -5.32129 11.2227 -10.0156 17.543 -13.957zM262.572 185.429c3.94531 3.94336 10.3408 3.94336 14.2842 0.00195312c3.94531 -3.94531 3.94531 -10.3408 0 -14.2861
c-22.4258 -22.4238 -52.2568 -34.6758 -83.4932 -34.6758c-4.70996 0 -9.44727 0.277344 -14.2012 0.841797c-5.53906 0.657227 -9.49707 5.68066 -8.83984 11.2197c0.655273 5.54004 5.68066 9.50098 11.2197 8.84082c30.0967 -3.57031 59.6299 6.65723 81.0303 28.0576z
M499.737 7.56348c16.3506 -16.3496 16.3506 -42.9521 0.00292969 -59.2998c-8.1748 -8.17383 -18.915 -12.2607 -29.6514 -12.2607c-10.7393 0 -21.4756 4.08594 -29.6514 12.2607l-122.246 122.247c-1.89551 1.89355 -2.95898 4.46289 -2.95898 7.1416
s1.06348 5.24902 2.95898 7.14258l4.88965 4.88965l-11.9951 11.9961c-34.6094 -26.6855 -76.2588 -40.0312 -117.909 -40.0312c-49.4902 0 -98.9824 18.8398 -136.659 56.5166c-75.3555 75.3535 -75.3555 197.965 0 273.318c75.3535 75.3545 197.965 75.3545 273.318 0
c69.3857 -69.3857 74.8779 -178.835 16.4844 -254.568l11.9961 -11.9961l4.89062 4.89062c3.94336 3.94434 10.3389 3.94434 14.2842 0zM70.7998 132.45c32.6885 -32.6885 76.1494 -50.6895 122.376 -50.6895s89.6865 18.002 122.374 50.6895
c32.6885 32.6865 50.6895 76.1475 50.6895 122.374s-18.001 89.6865 -50.6895 122.374c-32.6865 32.6875 -76.1494 50.6904 -122.375 50.6904c-46.2266 0 -89.6865 -18.0029 -122.375 -50.6904c-32.6865 -32.6865 -50.6895 -76.1475 -50.6895 -122.374
s18.001 -89.6865 50.6895 -122.374zM326.459 114.874l10.9053 -10.9053l6.66699 6.66699l-10.9053 10.9053c-1.08105 -1.13477 -2.17773 -2.25977 -3.29199 -3.375c-1.11328 -1.11523 -2.23926 -2.21094 -3.375 -3.29199zM485.453 -37.4531
c8.47266 8.47266 8.47266 22.2588 0 30.7314l-115.104 115.104l-30.7314 -30.7314l115.104 -115.104c8.47266 -8.47168 22.2578 -8.47266 30.7314 0z" />
    <glyph glyph-name="uniF160" unicode="&#xf160;" 
d="M304.724 242.219h-20.96v-182.401h34.2412c4.62012 0 8.36523 -3.74609 8.36523 -8.36621v-34.0225h31.0107c4.62012 0 8.36523 -3.74512 8.36523 -8.36523v-51.3115c0 -4.62012 -3.74512 -8.36621 -8.36523 -8.36621h-73.6162v-5.01953
c0 -4.62012 -3.74512 -8.36621 -8.36523 -8.36621h-38.7979c-4.62012 0 -8.36523 3.74609 -8.36523 8.36621v297.853h-20.96c-56.7334 0 -102.891 46.1562 -102.891 102.891c0 56.7334 46.1572 102.891 102.891 102.891h97.4473
c56.7354 0 102.891 -46.1572 102.891 -102.891c0 -56.7344 -46.1572 -102.891 -102.891 -102.891zM121.116 345.109c0 -47.5088 38.6514 -86.1592 86.1602 -86.1592h97.4473c47.5078 0 86.1592 38.6514 86.1592 86.1592s-38.6514 86.1582 -86.1592 86.1582h-97.4482
c-47.5078 0 -86.1592 -38.6504 -86.1592 -86.1582zM309.638 43.085h-25.874v-76.9678h65.25v34.5801h-31.0107c-4.62012 0 -8.36523 3.74609 -8.36523 8.36621v34.0215zM267.032 -47.2676v289.486h-22.0654v-289.486h22.0654zM358.891 345.109
c0 -29.8682 -24.2988 -54.167 -54.166 -54.167h-97.4482c-29.8682 0 -54.167 24.2988 -54.167 54.167c0 29.8672 24.2988 54.167 54.167 54.167h97.4473c29.8682 0 54.167 -24.2998 54.167 -54.167zM169.841 345.109c0 -20.6416 16.7939 -37.4355 37.4355 -37.4355h97.4482
c20.6416 0 37.4355 16.7939 37.4355 37.4355s-16.7939 37.4346 -37.4355 37.4346h-97.4482c-20.6416 0 -37.4355 -16.793 -37.4355 -37.4346z" />
    <glyph glyph-name="uniF157" unicode="&#xf157;" 
d="M495.643 -18.3506c10.3086 -10.7227 9.9668 -27.8174 -0.746094 -38.127c-5.04199 -4.85352 -11.6846 -7.52246 -18.6855 -7.52246c-7.39746 0 -14.2998 2.93945 -19.4316 8.26855l-122.783 127.699c-34.8633 -24.501 -75.6416 -37.4072 -118.433 -37.4072
c-113.983 0 -206.72 92.7363 -206.72 206.72s92.7363 206.72 206.72 206.72s206.72 -92.7363 206.72 -206.72c0 -48.7861 -17.166 -95.6484 -48.498 -132.894zM215.563 394.073c-84.252 0 -152.793 -68.541 -152.793 -152.793s68.541 -152.793 152.793 -152.793
s152.793 68.541 152.793 152.793s-68.541 152.793 -152.793 152.793z" />
    <glyph glyph-name="uniF162" unicode="&#xf162;" 
d="M122.53 173.726c-9.97363 9.9502 -9.97363 26.5752 -0.0253906 36.5488l230.244 230.165c10.1025 10.0781 26.4971 10.0781 36.5996 0c10.1025 -10.1025 10.1025 -26.4707 0 -36.5488l-211.956 -211.904l211.981 -211.905c10.1035 -10.0771 10.1035 -26.4453 0 -36.5234
c-10.1279 -10.0771 -26.4971 -10.0771 -36.5996 0z" />
    <glyph glyph-name="uniF11B" unicode="&#xf11b;" 
d="M434.087 448c42.9521 0 77.9131 -34.9492 77.9131 -77.9131v-356.174c0 -42.9521 -34.9492 -77.9131 -77.9131 -77.9131h-300.521c-30.0303 0 -46.5586 0 -55.6523 1.0127v-1.0127c-42.9521 0 -77.9131 34.9492 -77.9131 77.9131v356.174
c0 42.9639 34.9492 77.9131 77.9131 77.9131h356.174zM489.739 13.9131v356.174c0 30.6865 -24.9658 55.6523 -55.6523 55.6523h-356.174c-30.6865 0 -55.6523 -24.9658 -55.6523 -55.6523v-356.174c0 -30.6865 24.9658 -55.6523 55.6523 -55.6523h356.174
c30.6865 0 55.6523 24.9658 55.6523 55.6523zM256 358.956c92.0596 0 166.956 -74.8965 166.956 -166.956s-74.8965 -166.956 -166.956 -166.956s-166.956 74.8965 -166.956 166.956s74.8965 166.956 166.956 166.956zM256 47.3047
c79.7832 0 144.695 64.9121 144.695 144.695s-64.9121 144.695 -144.695 144.695s-144.695 -64.9121 -144.695 -144.695s64.9121 -144.695 144.695 -144.695zM255.477 292.697c55.5186 0 100.697 -45.1787 100.697 -100.697s-45.1787 -100.697 -100.697 -100.697
s-100.696 45.1787 -100.696 100.697s45.1777 100.697 100.696 100.697zM255.477 113.563c43.2529 0 78.4365 35.1836 78.4365 78.4365s-35.1836 78.4365 -78.4365 78.4365s-78.4355 -35.1836 -78.4355 -78.4365s35.1826 -78.4365 78.4355 -78.4365zM400.695 358.956
c0 12.2949 9.9668 22.2617 22.2607 22.2617c12.2949 0 22.2617 -9.9668 22.2617 -22.2617c0 -12.2939 -9.9668 -22.2607 -22.2617 -22.2607c-12.2939 0 -22.2607 9.9668 -22.2607 22.2607z" />
    <glyph glyph-name="uniF155" unicode="&#xf155;" 
d="M360.76 158.74c-29.4111 -38.7822 -44.7871 -84.1006 -44.7881 -131.053v-50.8096c0 -22.5391 -18.3369 -40.877 -40.876 -40.877h-38.0215c-22.54 0 -40.877 18.3369 -40.877 40.877v50.8135c0 46.4385 -15.9092 92.9043 -44.7969 130.839
c-17.7939 23.3672 -27.0586 51.2871 -26.791 80.7441c0.311523 34.3594 13.9307 66.8018 38.3477 91.3467c24.4189 24.5469 56.7881 38.333 91.1445 38.8193c35.4531 0.511719 68.9062 -12.9268 94.1475 -37.8125c25.2451 -24.8916 39.1475 -58.1221 39.1475 -93.5703
c0 -28.9121 -9.21094 -56.3389 -26.6367 -79.3174zM164.804 168.735c30.4531 -39.9893 47.5127 -88.835 48.2168 -137.88h85.958c0.682617 49.5254 17.3682 97.1992 48.3584 138.063c15.1865 20.0254 23.2129 43.9326 23.2129 69.1377
c0 30.9033 -12.1201 59.874 -34.1299 81.5732c-22.002 21.6943 -51.1357 33.3809 -82.0801 32.9648c-61.6855 -0.87207 -112.325 -51.7773 -112.886 -113.475c-0.232422 -25.6816 7.8418 -50.0205 23.3496 -70.3848zM213.044 -17.4141l85.7051 -9.81836
c0.231445 1.33789 0.37793 2.70605 0.37793 4.11035v2.66602l-86.083 9.86133v-6.81934zM213.044 6.3623l86.083 -9.8623v17.5098h-86.083v-7.64746zM237.074 -47.1533v0.000976562h38.0225c4.98242 0 9.61328 1.52539 13.4561 4.13184l-72.5156 8.30762
c4.09863 -7.40918 11.9883 -12.4404 21.0371 -12.4404zM172.706 225.387c0.685547 -4.60156 -2.48828 -8.88672 -7.08789 -9.57422c-0.420898 -0.0625 -0.839844 -0.0927734 -1.25391 -0.0927734c-4.10352 0 -7.69727 3.00195 -8.32031 7.18164
c-0.788086 5.28027 -1.16211 10.6953 -1.1123 16.0977c0.0429688 4.65137 3.87891 8.38574 8.5 8.3457c4.65137 -0.0429688 8.3877 -3.84766 8.3457 -8.5c-0.0419922 -4.52148 0.271484 -9.0498 0.928711 -13.458zM222.276 97.4414c-3.54004 0 -6.83398 2.24805 -8 5.79395
c-8.74805 26.6025 -21.7861 51.3877 -38.752 73.665c-3.58203 4.70508 -6.75879 9.72168 -9.44238 14.9131c-2.13672 4.13281 -0.517578 9.21484 3.61426 11.3506c4.13281 2.13672 9.21484 0.518555 11.3506 -3.61426c2.23633 -4.32715 4.8877 -8.5127 7.87988 -12.4424
c18.1045 -23.7725 32.0176 -50.2217 41.3525 -78.6104c1.45312 -4.41797 -0.951172 -9.17969 -5.37109 -10.6328c-0.873047 -0.286133 -1.76074 -0.422852 -2.63184 -0.422852zM344.507 209.214c4.27344 -1.83887 6.24414 -6.7959 4.40332 -11.0674
c-3.20801 -7.44531 -7.34961 -14.5391 -12.3125 -21.083c-1.65625 -2.18555 -4.17285 -3.33496 -6.71875 -3.33496c-1.77344 0 -3.56152 0.557617 -5.08301 1.71191c-3.70605 2.81152 -4.43262 8.0957 -1.62207 11.8018c4.14258 5.45996 7.5957 11.3711 10.2646 17.5684
c1.83984 4.27246 6.7959 6.24414 11.0684 4.40332zM256.001 322.282c-4.65234 0 -8.42383 3.77148 -8.42383 8.42383c0 4.65137 3.77148 8.42285 8.42383 8.42285c55.7314 0 101.072 -45.3418 101.072 -101.073c0 -3.15234 -0.146484 -6.33105 -0.431641 -9.44727
c-0.401367 -4.37109 -4.07324 -7.6543 -8.37793 -7.6543c-0.258789 0 -0.518555 0.0126953 -0.780273 0.0361328c-4.63281 0.425781 -8.04199 4.52441 -7.61719 9.15723c0.239258 2.60742 0.360352 5.26758 0.360352 7.9082c0 46.4424 -37.7832 84.2266 -84.2256 84.2266z
M256.001 383.983c-4.65234 0 -8.42383 3.77148 -8.42383 8.42285v47.1709c0 4.65137 3.77148 8.42285 8.42383 8.42285c4.65137 0 8.42285 -3.77148 8.42285 -8.42285v-47.1709c0 -4.65137 -3.77148 -8.42285 -8.42285 -8.42285zM170.784 367.339l-23.5742 40.8359
c-2.3252 4.02832 -0.944336 9.18066 3.08398 11.5059c4.0293 2.32617 9.17969 0.946289 11.5068 -3.08398l23.5732 -40.8359c2.32617 -4.02832 0.945312 -9.17969 -3.08398 -11.5059c-1.32617 -0.765625 -2.77441 -1.12988 -4.20312 -1.12988
c-2.91113 0 -5.74121 1.51074 -7.30273 4.21387zM436.01 142.388c4.02832 -2.32617 5.41016 -7.47754 3.08398 -11.5059c-1.55957 -2.70215 -4.3916 -4.21387 -7.30176 -4.21387c-1.42969 0 -2.87793 0.363281 -4.2041 1.12988l-40.8359 23.5732
c-4.0293 2.32617 -5.41016 7.47754 -3.08398 11.5068c2.32422 4.0293 7.47656 5.41016 11.5059 3.08398zM75.9902 330.786c-4.03027 2.32715 -5.41016 7.47754 -3.08398 11.5068s7.47754 5.41113 11.5059 3.08398l40.8359 -23.5742
c4.0293 -2.32617 5.41016 -7.47754 3.08398 -11.5059c-1.55957 -2.70215 -4.3916 -4.21387 -7.30273 -4.21387c-1.42969 0 -2.87695 0.363281 -4.20312 1.12988zM458.988 245.011c4.65332 0 8.42383 -3.77148 8.42383 -8.42285
c0 -4.65234 -3.77148 -8.42383 -8.42383 -8.42383h-47.1699c-4.65234 0 -8.42285 3.77148 -8.42285 8.42383c0 4.65137 3.77051 8.42285 8.42285 8.42285h47.1699zM108.604 236.588c0 -4.65234 -3.76953 -8.42383 -8.42285 -8.42383h-47.1699
c-4.65234 0 -8.42383 3.77148 -8.42383 8.42383c0 4.65137 3.77148 8.42285 8.42383 8.42285h47.1699c4.65137 0 8.42285 -3.77148 8.42285 -8.42285zM390.971 306.083c-2.91016 0 -5.74316 1.51172 -7.30273 4.21387c-2.32617 4.02832 -0.944336 9.17969 3.08398 11.5059
l40.8359 23.5742c4.02734 2.32617 9.17969 0.944336 11.5059 -3.08398c2.32617 -4.0293 0.944336 -9.18066 -3.08398 -11.5068l-40.8359 -23.5732c-1.32617 -0.766602 -2.77539 -1.12988 -4.20312 -1.12988zM116.826 165.962
c4.02637 2.3252 9.18164 0.945312 11.5059 -3.08398c2.32617 -4.0293 0.944336 -9.18066 -3.08398 -11.5068l-40.8359 -23.5732c-1.32617 -0.766602 -2.77539 -1.12988 -4.2041 -1.12988c-2.91016 0 -5.74219 1.51172 -7.30176 4.21387
c-2.32617 4.02832 -0.944336 9.17969 3.08398 11.5059zM329.71 364.255c-4.0293 2.32617 -5.41016 7.47754 -3.08398 11.5059l23.5732 40.8359c2.32617 4.03027 7.47852 5.41016 11.5068 3.08398c4.02832 -2.3252 5.40918 -7.47754 3.08398 -11.5059l-23.5742 -40.8359
c-1.55957 -2.70215 -4.3916 -4.21387 -7.30273 -4.21387c-1.42969 0 -2.87695 0.364258 -4.20312 1.12988z" />
    <glyph glyph-name="uniF170" unicode="&#xf170;" 
d="M138.098 3.30176l-126.585 126.48c-15.3506 15.3496 -15.3506 40.2676 0 55.6172l190.509 190.404c10.6191 10.7236 25.1279 16.6113 40.2676 16.4014l114.074 -1.57715c23.3398 -0.31543 42.1602 -19.1357 42.4756 -42.4756v-0.31543
c5.25684 -1.89258 10.6182 -3.89062 15.9805 -6.09863c29.123 -12.0908 54.7764 -28.3867 72.4395 -46.0498l0.946289 -0.946289c28.4922 -29.0176 25.3379 -51.0967 20.9229 -61.6104c-4.41602 -10.6191 -17.874 -28.3867 -58.457 -28.5977
c-16.4014 -0.104492 -35.0107 2.7334 -54.1455 8.0957c-2.7334 -6.93848 -6.93848 -13.457 -12.4062 -18.9248l-190.403 -190.403c-15.3506 -15.3506 -40.2676 -15.3506 -55.6182 0zM284.87 324.075c-12.7217 -12.7207 -12.7217 -33.3281 -0.105469 -45.9443
c12.7217 -12.7217 33.3281 -12.7217 46.0498 0c0.420898 0.525391 0.946289 1.05078 1.36719 1.57715c12.9316 -9.56738 28.9131 -18.3994 45.9453 -25.5488c58.2461 -24.2861 96.6211 -16.7168 100.195 -8.2002c1.15625 2.7334 -0.31543 11.6699 -13.9834 25.6533
l-0.630859 0.630859c-14.4033 14.4033 -36.7979 28.4922 -61.7148 38.9004c-0.946289 0.420898 -1.78809 0.736328 -2.73438 1.15625l0.630859 -45.8398c-5.25684 1.78809 -10.7236 3.89062 -16.4014 6.20312c-15.9805 6.62402 -30.9102 14.8252 -43.4219 23.6562
c1.47266 9.77734 -1.57715 20.1865 -9.14648 27.7559c-12.7217 12.7217 -33.3291 12.7217 -46.0498 0z" />
    <glyph glyph-name="uniF154" unicode="&#xf154;" 
d="M462.385 343.409c36.3945 -49.5947 53.7227 -110.633 48.792 -171.875c-0.24707 -3.06934 -0.5625 -6.125 -0.918945 -9.17285c-0.0185547 -0.246094 -0.046875 -0.491211 -0.0839844 -0.736328c-4.21387 -35.2051 -15.6475 -68.9531 -33.333 -99.1543
c-0.0742188 -0.135742 -0.155273 -0.266602 -0.234375 -0.399414c-10.8477 -18.4473 -24.0166 -35.5703 -39.3135 -50.873c-3.9043 -3.9043 -10.2344 -3.90723 -14.1396 -0.00195312c-3.90625 3.90234 -3.90723 10.2334 -0.00292969 14.1396
c8.69238 8.69727 16.5645 17.9688 23.6211 27.7002l-81.1748 -15.2471l-41.4609 -71.8789c12.8682 3.91797 25.5645 8.97461 37.9492 15.2246c4.92969 2.48926 10.9434 0.508789 13.4307 -4.4209c2.48926 -4.92969 0.509766 -10.9424 -4.4209 -13.4307
c-20.5625 -10.377 -42.3535 -17.8213 -64.7168 -22.2891c-0.461914 -0.124023 -0.932617 -0.211914 -1.41016 -0.269531c-16.085 -3.11816 -32.4551 -4.71875 -48.8779 -4.71875c-16.3096 0 -32.6621 1.57617 -48.833 4.70801
c-0.585938 0.0605469 -1.16309 0.166992 -1.72754 0.327148c-2.71191 0.544922 -5.41895 1.12305 -8.11914 1.75684c-59.2334 13.9053 -111.707 48.6152 -147.753 97.7354c-5.30469 7.22754 -10.1875 14.6738 -14.6621 22.3018
c-0.0214844 0.0380859 -0.0439453 0.0751953 -0.0654297 0.113281c-29.6074 50.5195 -40.9199 109.185 -31.9131 167.86c10.374 67.5801 46.4453 127.075 101.566 167.526c55.1221 40.4512 122.697 57.0146 190.276 46.6396
c67.5811 -10.374 127.074 -46.4443 167.525 -101.565zM291.826 425.209c-35.7617 5.48926 -71.5166 2.78125 -105.104 -7.56055l68.8828 -42.1455l14.4062 10.3262c4.48926 3.21582 10.7344 2.18555 13.9521 -2.30176c3.2168 -4.48828 2.18652 -10.7354 -2.30176 -13.9521
l-15.3975 -11.0361v-75.0996l69.1074 -50.209l78.3887 17.5996l12.2002 104.891c-35.6875 37.1904 -82.3291 61.5352 -134.135 69.4883zM190.646 218.665l24.8779 -76.5674v-0.000976562h80.5078l24.8779 76.5674l-65.1318 47.3213l-32.5664 -23.6602zM116.415 382.212
c-12.6191 -9.25977 -24.1514 -19.6035 -34.5098 -30.874l16.0684 -100.44l78.6982 -17.6699l69.1074 50.2109v74.6309l-82.9697 50.7637c-16.2295 -7.0127 -31.7881 -15.9023 -46.3945 -26.6211zM22.7822 227.775c-2.08594 -13.6006 -2.99023 -27.1992 -2.74219 -40.6797
l58.4541 58.9648l-13.5293 84.5713c-21.8574 -30.0449 -36.3828 -65.0762 -42.1826 -102.856zM22.0371 160.706c3.88965 -29.4199 13.3438 -57.8691 28.0684 -84.042l97.9834 -18.8086l49.1865 75.6904l-26.1338 80.4297l-78.7656 17.6846zM65.7793 52.3633
c31.4297 -42.8281 74.6758 -72.3018 122.24 -86.6416l-41.5879 72.0879l-81.4238 15.6309c0.259766 -0.357422 0.508789 -0.720703 0.771484 -1.07715zM297.306 -40.5791l50.2041 87.0361l-49.1543 75.6426h-84.6699l-49.1543 -75.6416l50.2627 -87.127
c27.0293 -4.79492 54.9531 -4.87207 82.5117 0.0898438zM461.538 76.1592c14.5742 26.1094 23.8926 54.6299 27.8398 83.8428l-69.7695 71.6465l-78.708 -17.6719l-26.1348 -80.4297l49.2021 -75.7148zM491.475 186.51c1.20801 50.7568 -13.6338 102.035 -45.2119 145.067
c-0.847656 1.15527 -1.71387 2.29102 -2.58008 3.42773l-10.3301 -88.8086zM310.854 404.804c1.86035 -1.8584 2.93066 -4.43848 2.93066 -7.06836s-1.07031 -5.20898 -2.93066 -7.06934c-1.85938 -1.87012 -4.43848 -2.92969 -7.06836 -2.92969
s-5.20898 1.05957 -7.06934 2.92969c-1.85938 1.86035 -2.92969 4.43945 -2.92969 7.06934s1.07031 5.20898 2.92969 7.06836c1.86035 1.86035 4.43945 2.93066 7.06934 2.93066s5.20898 -1.07031 7.06836 -2.93066zM407.439 0.357422
c1.85938 -1.86035 2.92969 -4.43945 2.92969 -7.06934s-1.07031 -5.20898 -2.92969 -7.06934c-1.86035 -1.87012 -4.43945 -2.92969 -7.06934 -2.92969c-2.63086 0 -5.20898 1.05957 -7.06934 2.92969c-1.85938 1.86035 -2.92969 4.43945 -2.92969 7.06934
s1.07031 5.20898 2.92969 7.06934c1.86035 1.85938 4.43945 2.92969 7.06934 2.92969s5.20898 -1.07031 7.06934 -2.92969z" />
    <glyph glyph-name="uniF145" unicode="&#xf145;" 
d="M507.617 443.548c4.36621 -4.25781 5.56738 -10.6982 3.16602 -16.2656l-209.041 -482.267c-2.29199 -5.13086 -7.0957 -8.51465 -12.6621 -8.8418h-0.874023c-5.12988 0 -10.042 2.83789 -12.6621 7.31348l-99.8809 169.962l-168.215 95.4053
c-4.80371 2.72852 -7.75098 7.96875 -7.42285 13.5352c0.327148 5.56738 3.71094 10.4795 8.8418 12.7725l482.485 211.441c5.45801 2.40137 12.0078 1.20117 16.2646 -3.05566zM430.878 387.985l-383.259 -167.997l136.34 -77.2852zM286.241 -16.5605l167.015 385.225
l-248.338 -246.701z" />
    <glyph glyph-name="uniF107" unicode="&#xf107;" 
d="M506.143 442.142c3.75098 -3.75098 5.85742 -8.83789 5.85742 -14.1426l-0.0078125 -185.472c0 -5.30469 -2.10742 -10.3916 -5.85742 -14.1416l-286.527 -286.527c-3.75098 -3.75098 -8.83789 -5.8584 -14.1426 -5.8584s-10.3916 2.10742 -14.1426 5.8584
l-185.465 185.465c-3.75 3.75 -5.85742 8.83789 -5.85742 14.1416s2.10742 10.3926 5.85742 14.1426l286.528 286.527c3.75098 3.75 8.83789 5.8584 14.1426 5.8584l185.471 0.00683594c5.30469 0 10.3926 -2.10742 14.1436 -5.8584zM471.992 250.812l0.00683594 157.188
l-157.188 -0.00585938l-266.527 -266.528l157.181 -157.181zM417.402 353.401c24.1592 -24.1611 24.1592 -63.4727 0 -87.6338c-24.1631 -24.1602 -63.4727 -24.1602 -87.6348 0c-24.1592 24.1611 -24.1592 63.4727 0 87.6338c24.1631 24.1592 63.4736 24.1582 87.6348 0z
M389.116 294.053c8.56348 8.56445 8.56348 22.5 0 31.0645c-8.56445 8.56348 -22.499 8.56348 -31.0635 0c-8.56348 -8.56445 -8.56348 -22.5 0 -31.0645c8.56641 -8.56445 22.501 -8.56348 31.0635 0z" />
    <glyph glyph-name="uniF10E" unicode="&#xf10e;" 
d="M136.424 212.56c0 4.56543 1.7832 8.84961 5.0166 12.0752l102.571 102.569c14.5664 14.5654 29.9092 14.5654 42.2314 14.5654c11.5117 0 20.5996 0 30.1738 9.56641l24.1309 24.1406c3.33691 3.33691 8.73828 3.33691 12.0664 0
c3.33594 -3.32812 3.33594 -8.72949 0 -12.0654l-24.1318 -24.1416c-14.5654 -14.5654 -29.918 -14.5654 -42.2393 -14.5654c-11.5117 0 -20.5996 0 -30.165 -9.56641l-102.578 -102.578l6.0332 -6.03223c9.66699 -9.66797 26.5371 -9.66797 36.1973 0l48.2812 48.2725
c3.32812 3.32812 8.72949 3.32812 12.0664 0c14.499 -14.498 33.7744 -22.4854 54.2803 -22.4854h0.0263672c20.5225 0.00878906 39.8418 8.03027 54.3828 22.5713c3.33594 3.33691 8.72852 3.33691 12.0654 0c3.33691 -3.32812 3.33691 -8.73047 0 -12.0664
c-17.7578 -17.7656 -41.3613 -27.5537 -66.4404 -27.5703h-0.0429688c-22.1865 0 -43.2051 7.65332 -60.041 21.7168l-42.5039 -42.5049c-8.06445 -8.05566 -18.7734 -12.4932 -30.1738 -12.4932s-22.1016 4.43848 -30.165 12.4932l-6.0332 6.0332
c-3.22559 3.2168 -5.00879 7.50098 -5.00879 12.0654zM76.8018 354.109c-9.41211 0 -17.0674 7.6543 -17.0674 17.0674s7.65527 17.0664 17.0674 17.0664s17.0664 -7.6543 17.0664 -17.0664c0 -9.41309 -7.65527 -17.0674 -17.0664 -17.0674zM159.532 327.204
c-3.32812 3.33691 -3.32812 8.7373 0 12.0654c3.33594 3.33594 8.7373 3.33594 12.0654 0l24.1318 -24.1318c3.33691 -3.33594 3.33691 -8.7373 0 -12.0654c-1.66406 -1.67188 -3.84766 -2.5 -6.0332 -2.5c-2.17578 0 -4.36035 0.827148 -6.0332 2.5zM435.198 388.242
c-9.40332 0 -17.0664 7.65527 -17.0664 17.0674c0 9.41309 7.66309 17.0664 17.0664 17.0664c9.4043 0 17.0674 -7.6543 17.0674 -17.0664c0 -9.41309 -7.66309 -17.0674 -17.0674 -17.0674zM454.766 266.276c3.33691 3.33691 8.72949 3.33691 12.0654 -0.000976562
c3.33691 -3.33594 3.33691 -8.73828 0 -12.0654c-10.2734 -10.2822 -14.5068 -30.3438 -18.5938 -49.749c-4.59961 -21.8369 -9.35254 -44.416 -23.2109 -58.2734l-12.0654 -12.0664c-1.67188 -1.67188 -3.85742 -2.5 -6.0332 -2.5
c-2.18457 0 -4.37012 0.827148 -6.04199 2.5c-3.32812 3.32812 -3.32812 8.72949 0 12.0664l12.0752 12.0654c10.2734 10.2744 14.498 30.3359 18.5771 49.7236c4.59961 21.8457 9.36035 44.4326 23.2275 58.2998zM509.498 266.276
c3.33594 -3.33594 3.33594 -8.72852 0 -12.0654c-1.66406 -1.66406 -3.84863 -2.5 -6.0332 -2.5c-2.18359 0 -4.36914 0.835938 -6.0332 2.5l-145.065 145.065c-3.33691 3.33594 -3.33691 8.72852 0 12.0664l34.1328 34.1318c3.33594 3.33594 8.72852 3.33594 12.0654 0
c3.33789 -3.33594 3.33789 -8.72852 0 -12.0654l-28.0996 -28.0996zM316.416 194.461l90.5117 -90.5137c13.3027 -13.3027 13.3027 -34.96 0 -48.2725c-4.39453 -4.38574 -9.70312 -7.33008 -15.3086 -8.82227l3.2334 -3.24316
c13.3125 -13.3125 13.3125 -34.9619 0 -48.2646c-10.5049 -10.5049 -26.2227 -12.7324 -38.9111 -6.63867c-1.29688 -6.58887 -4.50586 -12.6475 -9.36133 -17.502c-10.1113 -10.1289 -26.4014 -12.6807 -38.9111 -6.64746
c-1.29688 -6.58691 -4.51465 -12.6377 -9.36133 -17.4932c-6.64648 -6.64648 -15.3936 -9.97461 -24.1318 -9.9834c-8.74609 0 -17.4844 3.33691 -24.1318 9.9834l-145.142 145.016c-25.958 25.958 -31.4883 58.0342 -35.9248 83.8047
c-3.22559 18.748 -6.01562 34.9355 -15.2754 44.1943c-3.33691 3.33594 -3.33594 8.72852 0 12.0654s8.72949 3.33691 12.0664 0c13.0898 -13.0898 16.4609 -32.6484 20.0273 -53.3584c4.24121 -24.6191 9.04492 -52.5137 31.1719 -74.6406l145.143 -145.006
c6.65527 -6.66504 17.4922 -6.64746 24.1318 -0.00878906c3.22559 3.22461 5.00098 7.50879 5.00098 12.0654c0 4.56641 -1.77539 8.84961 -5.00098 12.0752l-78.4375 78.4375c-3.33594 3.33594 -3.33594 8.73828 0 12.0654c3.32812 3.33691 8.72852 3.33691 12.0654 0
l78.4297 -78.4287h0.00878906l12.0752 -12.0664c6.45117 -6.45898 17.6807 -6.45898 24.1318 -0.0078125c6.65527 6.65625 6.65527 17.4854 0 24.1406l-96.5371 96.5371c-3.33691 3.33594 -3.33691 8.73828 0 12.0664c3.32715 3.33691 8.72852 3.33691 12.0654 0
l108.603 -108.611c6.66504 -6.65723 17.4844 -6.63867 24.1406 0.0078125c6.65625 6.64746 6.65625 17.4766 0 24.1318l-114.645 114.645c-3.33691 3.32812 -3.33691 8.72852 0 12.0654c3.32812 3.33691 8.72949 3.33691 12.0664 0l90.5039 -90.5117
c6.66504 -6.64746 17.502 -6.63965 24.1406 0c6.65625 6.65527 6.65625 17.4844 0 24.1406l-90.5039 90.5039c-3.33594 3.33691 -3.33594 8.73828 0 12.0752c3.33594 3.32812 8.72852 3.32812 12.0664 0zM159.634 377.21c3.33691 -3.33691 3.33691 -8.73047 0 -12.0674
l-145.065 -145.064c-1.66406 -1.66406 -3.84961 -2.5 -6.0332 -2.5c-2.18457 0 -4.36914 0.835938 -6.0332 2.5c-3.33594 3.33594 -3.33594 8.72852 0 12.0654l139.033 139.033l-45.167 45.166c-3.33691 3.33691 -3.33691 8.73047 0 12.0664
c3.33594 3.33691 8.73047 3.33691 12.0664 0zM209.877 -45.375c4.15625 2.19238 9.32715 0.572266 11.5127 -3.59277c2.19238 -4.18164 0.580078 -9.33496 -3.59375 -11.5205c-4.17285 -2.18359 -9.24023 -3.48926 -14.6426 -3.48926
c-8.41406 0 -17.6299 3.15625 -25.5225 11.041c-6.46777 6.47754 -9.89062 13.875 -10.9482 20.9414c-10.9395 -2.32129 -22.8008 0.750977 -31.292 9.23242c-5.9043 5.90527 -9.18945 13.457 -9.85547 21.1885c-11.2383 -2.77344 -23.6201 0.22168 -32.375 8.98535
c-6.45117 6.44238 -10.001 15.0186 -10.001 24.1318c0 4.89062 1.02441 9.62598 2.96973 13.9609c-5.80273 1.54492 -11.6904 4.77051 -17.1006 10.1719c-13.7383 13.7393 -13.9258 31.0527 -7.02246 41.0537c2.67969 3.88281 7.98633 4.86426 11.8691 2.17578
c3.87402 -2.67969 4.85547 -7.99512 2.17676 -11.8691c-2.41504 -3.49902 -2.44922 -11.8018 5.04297 -19.2939c7.04785 -7.04004 15.2148 -7.35547 19.8564 -4.67578c3.69531 2.14062 8.43066 1.21094 11.042 -2.18555
c2.61133 -3.39551 2.30371 -8.20898 -0.734375 -11.2373l-6.03223 -6.0332c-6.64746 -6.64746 -6.64746 -17.4756 0 -24.1318c6.64648 -6.65625 17.4844 -6.65625 24.1318 0l6.03223 6.0332c3.33594 3.32715 8.73828 3.32715 12.0664 0
c1.67188 -1.67285 2.5 -3.84961 2.5 -6.0332c0 -2.18457 -0.827148 -4.36914 -2.5 -6.0332c-6.64746 -6.65625 -6.64746 -17.4844 0 -24.1406c6.63867 -6.64746 17.4756 -6.65625 24.1406 0c3.08887 3.09668 7.99512 3.35254 11.3828 0.614258
c3.40527 -2.73926 4.19043 -7.58594 1.83496 -11.2549c-2.37207 -3.7041 -2.43164 -12.2109 4.88086 -19.5332c7.31348 -7.2959 15.4277 -6.99805 20.1807 -4.50586z" />
    <glyph glyph-name="uniF128" unicode="&#xf128;" 
d="M256 385c138.554 0 256 -72.9541 256 -170.217c0 -97.2021 -117.368 -170.217 -256 -170.217c-28.8848 0 -57.1016 3.11523 -84.0479 9.26758l-48.6572 -48.9336c-5.71289 -5.74609 -14.3301 -7.47656 -21.8096 -4.3877
c-7.48828 3.08887 -12.373 10.3887 -12.373 18.4883v66.2461c-56.8135 32.1924 -89.1123 78.8848 -89.1123 129.537c0 97.1631 117.293 170.216 256 170.216zM256 84.5664c118.215 0 216 59.2695 216 130.217c0 70.9346 -97.7676 130.217 -216 130.217
c-118.208 0 -216 -59.2666 -216 -130.216c0 -38.207 28.4863 -74.5586 78.1553 -99.7314c6.72168 -3.40625 10.958 -10.3037 10.958 -17.8398v-29.7314l22.4463 22.5742c5.0332 5.06152 12.3809 7.06152 19.2822 5.2373c26.9932 -7.11816 55.6445 -10.7266 85.1582 -10.7266
zM229 214.75c0 14.9121 12.0879 27 27 27s27 -12.0879 27 -27s-12.0879 -27 -27 -27s-27 12.0879 -27 27zM111.49 214.75c0 14.9121 12.0879 27 27 27c14.9111 0 27 -12.0879 27 -27s-12.0889 -27 -27 -27c-14.9121 0 -27 12.0879 -27 27zM346.51 214.75
c0 14.9121 12.0889 27 27 27c14.9121 0 27 -12.0879 27 -27s-12.0879 -27 -27 -27c-14.9111 0 -27 12.0879 -27 27z" />
    <glyph glyph-name="uniF10D" unicode="&#xf10d;" 
d="M503.467 -46.9326c4.71875 0 8.53125 -3.82324 8.53125 -8.5332s-3.81445 -8.5332 -8.5332 -8.5332h-51.2002c-4.71875 0 -8.53223 3.82324 -8.53223 8.5332v264.533h-34.1338v-264.534c0 -4.70996 -3.81348 -8.5332 -8.53223 -8.5332h-34.1338
c-4.71875 0 -8.53223 3.82324 -8.53223 8.5332v145.066h-33.4268v-145.066c0 -4.70996 -3.81348 -8.5332 -8.53223 -8.5332h-34.8428c-4.71875 0 -8.53223 3.82324 -8.53223 8.5332v196.267h-34.1338v-196.266c0 -4.70996 -3.81348 -8.5332 -8.53223 -8.5332h-34.1357
c-4.71875 0 -8.53223 3.82324 -8.53223 8.5332v162.133h-34.1338v-162.134c0 -4.70996 -3.81348 -8.5332 -8.53223 -8.5332h-34.1338c-4.71875 0 -8.53223 3.82324 -8.53223 8.5332v93.8672h-34.1348v-93.8672c0 -4.70996 -3.81348 -8.5332 -8.53223 -8.5332h-51.2002
c-4.71875 0 -8.5332 3.82422 -8.5332 8.53418s3.81445 8.5332 8.5332 8.5332h42.668v93.8662c0 4.70996 3.81348 8.5332 8.5332 8.5332h51.1992c4.71973 0 8.5332 -3.82324 8.5332 -8.5332v-93.8662h17.0674v162.133c0 4.70996 3.81348 8.5332 8.5332 8.5332h51.1992
c4.71973 0 8.5332 -3.82324 8.5332 -8.5332v-162.134h17.0684v196.267c0 4.70996 3.81348 8.5332 8.5332 8.5332h51.1992c4.71973 0 8.5332 -3.82324 8.5332 -8.5332v-196.267h17.7754v145.066c0 4.70996 3.81348 8.5332 8.5332 8.5332h50.4912
c4.71973 0 8.5332 -3.82324 8.5332 -8.5332v-145.065h17.0674v264.532c0 4.70996 3.81348 8.5332 8.5332 8.5332h51.1992c4.71973 0 8.5332 -3.82324 8.5332 -8.5332v-264.532h42.667zM34.1328 123.733c-18.8242 0 -34.1328 15.3096 -34.1328 34.1338
s15.3086 34.1328 34.1328 34.1328c8.50781 0 16.2051 -3.24316 22.1963 -8.40527l167.646 167.646c-1.2793 3.5918 -2.10742 7.39746 -2.10742 11.4258c0 18.8242 15.3076 34.1328 34.1328 34.1328c18.8242 0 34.1328 -15.3076 34.1328 -34.1328
c0 -6.28906 -1.83398 -12.1172 -4.82031 -17.1855l38.835 -38.8271c5.06836 2.98633 10.8965 4.8125 17.1855 4.8125c6.30566 0 12.1523 -1.83398 17.2295 -4.83789l90.001 90.0098c-2.9873 5.07812 -4.83008 10.9141 -4.83008 17.2295
c0 18.8242 15.3086 34.1328 34.1328 34.1328s34.1328 -15.3086 34.1309 -34.1328c0 -18.8242 -15.3076 -34.1328 -34.1328 -34.1328c-6.30664 0 -12.1514 1.83398 -17.2373 4.83789l-89.9932 -90.0107c2.9873 -5.07715 4.83008 -10.9131 4.83008 -17.2285
c0 -18.8242 -15.3076 -34.1328 -34.1328 -34.1328c-18.8242 0 -34.1328 15.3076 -34.1328 34.1328c0 6.33105 1.85059 12.1846 4.85449 17.2705l-38.7842 38.7842c-5.08496 -3.01172 -10.9385 -4.85449 -17.2705 -4.85449c-8.50684 0 -16.2051 3.24219 -22.1953 8.40527
l-167.646 -167.646c1.28027 -3.5918 2.10742 -7.39844 2.10742 -11.4258c0 -18.8242 -15.3076 -34.1328 -34.1328 -34.1328zM477.867 430.933c-9.41309 0 -17.0674 -7.65332 -17.0674 -17.0674c0 -4.65918 1.88574 -8.87402 4.91504 -11.9551
c0.0351562 -0.0341797 0.0859375 -0.0429688 0.120117 -0.0771484s0.0429688 -0.0849609 0.0771484 -0.119141c3.08008 -3.0293 7.2959 -4.91504 11.9551 -4.91504c9.4043 0 17.0664 7.65527 17.0664 17.0674c0 9.41309 -7.66211 17.0664 -17.0664 17.0664zM341.333 294.4
c-9.41211 0 -17.0664 -7.6543 -17.0674 -17.0674c0 -9.41309 7.65527 -17.0674 17.0674 -17.0674c9.4043 0 17.0674 7.65527 17.0674 17.0674c0 9.41309 -7.66309 17.0674 -17.0674 17.0674zM256 379.733c-9.41211 0 -17.0674 -7.6543 -17.0674 -17.0674
s7.65527 -17.0674 17.0674 -17.0674c9.41309 0 17.0674 7.65527 17.0674 17.0674c0 9.41309 -7.65527 17.0674 -17.0674 17.0674zM34.1328 174.933c-9.41211 0 -17.0654 -7.65332 -17.0664 -17.0664c0 -9.41309 7.6543 -17.0674 17.0664 -17.0674
c9.4043 0 17.0674 7.65527 17.0674 17.0674c0 9.41309 -7.66309 17.0664 -17.0674 17.0664z" />
    <glyph glyph-name="uniF133" unicode="&#xf133;" 
d="M256.001 448c141.163 0 255.998 -114.846 255.998 -255.999c0 -141.155 -114.835 -256 -255.998 -256c-141.155 0 -256 114.845 -256 256c0 141.153 114.845 255.999 256 255.999zM256.001 -21.8193c117.901 0 213.815 95.916 213.815 213.818
c0 117.9 -95.9131 213.818 -213.815 213.818c-117.903 0 -213.818 -95.918 -213.818 -213.818c0 -117.903 95.915 -213.818 213.818 -213.818zM277.091 200.381l76.8193 -87.2217c7.69531 -8.74414 6.85156 -22.0684 -1.89258 -29.7715
c-4.00391 -3.53516 -8.98242 -5.26172 -13.9248 -5.26172c-5.84668 0 -11.665 2.4209 -15.8359 7.14453l-79.0889 89.8018c-0.206055 0.234375 -0.339844 0.500977 -0.537109 0.739258c-4.67383 3.87207 -7.71875 9.63965 -7.71875 16.1895v153.357
c0 11.6465 9.44238 21.0908 21.0889 21.0908s21.0898 -9.44434 21.0898 -21.0908v-144.978z" />
    <glyph glyph-name="uniF142" unicode="&#xf142;" 
d="M254.643 305.962c73.9717 0 134.15 -60.1777 134.15 -134.145c0 -73.9658 -60.1787 -134.144 -134.15 -134.144c-73.9658 0 -134.144 60.1777 -134.144 134.144c0 73.9668 60.1777 134.145 134.144 134.145zM254.643 61.4814c60.8447 0 110.336 49.4912 110.336 110.33
s-49.4912 110.33 -110.336 110.33c-60.8389 0 -110.33 -49.4912 -110.33 -110.33s49.4912 -110.33 110.33 -110.33zM255.637 256.846c6.5791 0 11.9072 -5.33496 11.9072 -11.9072s-5.33398 -11.9072 -11.9072 -11.9072c-34.2979 0 -62.208 -27.9033 -62.208 -62.2021
c0 -6.57227 -5.33398 -11.9062 -11.9072 -11.9062c-6.57227 0 -11.9062 5.33398 -11.9062 11.9062c0 47.4316 38.5898 86.0166 86.0215 86.0166zM449.144 343.813c33.4824 0 62.8564 -27.3262 62.8564 -59.2842v-226.232c0 -32.0244 -28.7852 -59.7852 -62.8564 -59.7852
h-392.925c-32.0479 0 -56.2188 26.1055 -56.2188 59.7852v226.232c0 34.2021 24.1709 59.2842 56.2188 59.2842h80.7119v6.2041c0 20.9619 13.627 35.4707 32.3984 35.4707h166.697c18.4326 0 39.043 -14.7646 39.043 -35.4707v-6.2041h74.0742zM488.187 58.2969v226.232
c0 18.9375 -18.6055 35.4707 -39.043 35.4707h-85.9805c-6.57324 0 -11.9072 6.04297 -11.9072 12.6152v17.4023c0 5.89355 -7.96582 11.6572 -15.2295 11.6572h-166.697c-8.17383 0 -8.58496 -9.5918 -8.58496 -11.6572v-17.4023
c0 -6.57227 -5.33398 -12.6152 -11.9072 -12.6152h-92.6182c-21.2715 0 -32.4053 -17.4912 -32.4053 -35.4707v-226.232c0 -20.4326 13.6279 -35.9717 32.4053 -35.9717h392.925c20.8008 0 39.043 17.1885 39.043 35.9717z" />
    <glyph glyph-name="uniF101" unicode="&#xf101;" 
d="M501.8 357.545c5.63184 0 10.1992 -4.56543 10.2002 -10.1982v-268.728c0 -28.7646 -23.4014 -52.165 -52.165 -52.165h-407.67c-28.7646 0 -52.165 23.4004 -52.165 52.165v268.728c0 5.63281 4.56738 10.1982 10.1992 10.1982h491.601zM491.601 78.6201v258.527
h-453.722l218.128 -178.57l170.847 139.552c4.3623 3.56543 10.7852 2.91699 14.3506 -1.44531c3.56348 -4.36328 2.91504 -10.7871 -1.44727 -14.3516l-177.306 -144.828c-1.87793 -1.5332 -4.16504 -2.30078 -6.45215 -2.30078
c-2.29004 0 -4.58008 0.769531 -6.46094 2.30762l-229.139 187.584v-246.475c0 -17.5156 14.25 -31.7666 31.7656 -31.7666h407.67c17.5156 0 31.7656 14.25 31.7656 31.7666zM469.922 320.142c3.56348 -4.36328 2.91504 -10.7881 -1.44824 -14.3516l-3.05957 -2.49902
c-1.89258 -1.5459 -4.17578 -2.2998 -6.44531 -2.2998c-2.95703 0 -5.88965 1.2793 -7.9043 3.74707c-3.56348 4.36328 -2.91504 10.7871 1.44727 14.3506l3.06055 2.49902c4.35938 3.56445 10.7871 2.91602 14.3496 -1.44629z" />
    <glyph glyph-name="uniF13D" unicode="&#xf13d;" 
d="M391.429 166.653l-220.152 -220.145c-14.0039 -14.0117 -36.71 -14.0117 -50.707 0c-13.999 13.998 -13.999 36.7031 0 50.7002l194.8 194.795l-194.794 194.788c-13.999 14.0039 -13.999 36.7061 0 50.7051c13.998 14.0039 36.7031 14.0039 50.707 0l220.152 -220.148
c6.99902 -7.00293 10.4941 -16.1709 10.4941 -25.3438c0 -9.17676 -3.50195 -18.3516 -10.5 -25.3516z" />
    <glyph glyph-name="uniF12F" unicode="&#xf12f;" 
d="M255.99 448c141.159 0 256.01 -114.842 256.01 -256s-114.851 -256 -256.01 -256c-141.152 0 -255.99 114.842 -255.99 256s114.838 256 255.99 256zM255.99 -30.4258c122.651 0 222.435 99.7812 222.433 222.426c0 122.645 -99.7812 222.425 -222.433 222.425
c-122.644 0 -222.416 -99.7793 -222.416 -222.425c0 -122.645 99.7734 -222.426 222.416 -222.426zM339.806 275.803c6.55762 -6.55762 6.55762 -17.1855 0 -23.7383l-60.0684 -60.0645l60.0654 -60.0703c6.55762 -6.55273 6.55762 -17.1855 0 -23.7373
c-3.27832 -3.28125 -7.5752 -4.91797 -11.8682 -4.91797c-4.29395 0 -8.58691 1.63867 -11.8672 4.91797l-60.0674 60.0723l-60.0791 -60.0703c-3.27734 -3.2793 -7.57227 -4.91797 -11.8672 -4.91797c-4.29395 0 -8.5918 1.63867 -11.8691 4.91797
c-6.55762 6.56055 -6.55762 17.1885 0 23.7402l60.0674 60.0654l-60.0596 60.0645c-6.55762 6.55273 -6.55762 17.1846 0 23.7383c6.55664 6.55762 17.1826 6.55762 23.7402 0l60.0674 -60.0635l60.0674 60.0635c6.55762 6.55762 17.1807 6.55762 23.7383 0z" />
    <glyph glyph-name="uniF151" unicode="&#xf151;" 
d="M367.353 198.957c-22.5371 0 -40.8711 18.334 -40.8711 40.8701c0 22.5371 18.334 40.8711 40.8711 40.8711c22.5361 0 40.8721 -18.335 40.8721 -40.8711c0 -22.5352 -18.3359 -40.8701 -40.8721 -40.8701zM367.353 264.357
c-13.5254 0 -24.5303 -11.0049 -24.5303 -24.5303s11.0049 -24.5303 24.5303 -24.5303c13.5264 0 24.5312 11.0039 24.5312 24.5303c0 13.5254 -11.0049 24.5303 -24.5312 24.5303zM367.353 182.616c37.1865 0 67.4404 -30.2529 67.4404 -67.4404
c0 -4.51172 -3.65723 -8.16992 -8.1709 -8.16992h-59.2695c-4.51367 0 -8.16992 3.6582 -8.16992 8.16992c0 4.5127 3.65625 8.1709 8.16992 8.1709h50.4482c-3.92383 24.3057 -25.0518 42.9287 -50.4482 42.9287c-8.40332 0 -16.7334 -2.08398 -24.0859 -6.02637
c-3.97852 -2.13184 -8.92871 -0.635742 -11.0605 3.33887c-2.13281 3.97656 -0.636719 8.92871 3.33887 11.0615c9.71875 5.21191 20.7168 7.9668 31.8076 7.9668zM145.373 123.348c4.51367 0 8.17188 -3.65723 8.17188 -8.16992
c0 -4.51172 -3.65723 -8.16992 -8.1709 -8.16992h-59.9951c-4.51367 0 -8.16992 3.6582 -8.16992 8.16992c0 37.1885 30.252 67.4404 67.4395 67.4404c11.0889 0 22.0859 -2.75391 31.8027 -7.96387c3.97656 -2.13281 5.47266 -7.08496 3.33887 -11.0615
c-2.13086 -3.97754 -7.08398 -5.47266 -11.0596 -3.33984c-7.35156 3.94141 -15.6777 6.02441 -24.082 6.02441c-25.3965 0 -46.5244 -18.624 -50.4482 -42.9297h51.1729zM144.647 198.957c-22.5352 0 -40.8721 18.334 -40.8721 40.8701
c0 22.5371 18.3359 40.8711 40.8721 40.8711c22.5371 0 40.8711 -18.335 40.8711 -40.8711c0 -22.5352 -18.334 -40.8701 -40.8711 -40.8701zM144.647 264.357c-13.5264 0 -24.5303 -11.0049 -24.5312 -24.5303c0 -13.5254 11.0049 -24.5303 24.5312 -24.5303
c13.5254 0 24.5303 11.0039 24.5303 24.5303c0 13.5254 -11.0049 24.5303 -24.5303 24.5303zM256 196.002c-29.0166 0 -52.623 23.6064 -52.623 52.623s23.6064 52.623 52.623 52.623s52.623 -23.6064 52.623 -52.623s-23.6064 -52.623 -52.623 -52.623zM256 284.907
c-20.0059 0 -36.2822 -16.2764 -36.2822 -36.2822s16.2754 -36.2822 36.2822 -36.2822s36.2822 16.2764 36.2822 36.2822s-16.2764 36.2822 -36.2822 36.2822zM256 179.662c48.9307 0 88.7393 -39.8086 88.7393 -88.7393c0 -4.5127 -3.65723 -8.1709 -8.16992 -8.1709
h-161.14c-4.51367 0 -8.16992 3.6582 -8.16992 8.1709c0 48.9307 39.8086 88.7393 88.7402 88.7393zM184.059 99.0928h143.882c-4.06836 36.0908 -34.7803 64.2285 -71.9404 64.2285s-67.873 -28.1377 -71.9414 -64.2285zM503.83 200.17
c4.5127 0 8.16992 -3.6582 8.16992 -8.16992s-3.65723 -8.16992 -8.16992 -8.16992h-19.8379c-4.22266 -119.32 -100.502 -215.6 -219.822 -219.821v-19.8389c0 -4.51172 -3.65625 -8.16992 -8.16992 -8.16992s-8.16992 3.6582 -8.16992 8.16992v19.8389
c-119.32 4.22168 -215.6 100.501 -219.822 219.821h-19.8379c-4.5127 0 -8.16992 3.6582 -8.16992 8.16992s3.65723 8.16992 8.16992 8.16992h19.8379c4.22266 119.32 100.502 215.6 219.822 219.821v19.8389c0 4.51172 3.65625 8.16992 8.16992 8.16992
s8.16992 -3.6582 8.16992 -8.16992v-19.8389c119.32 -4.22168 215.6 -100.501 219.822 -219.821h19.8379zM264.17 -19.6396c110.309 4.20605 199.264 93.1611 203.472 203.47h-19.5039c-4.51367 0 -8.1709 3.6582 -8.1709 8.16992s3.65723 8.16992 8.1709 8.16992h19.5039
c-4.20801 110.309 -93.1631 199.264 -203.472 203.47v-19.502c0 -4.5127 -3.65625 -8.1709 -8.16992 -8.1709s-8.16992 3.6582 -8.16992 8.1709v19.502c-110.309 -4.20605 -199.266 -93.1611 -203.472 -203.47h19.5039c4.51367 0 8.1709 -3.6582 8.1709 -8.16992
s-3.65723 -8.16992 -8.1709 -8.16992h-19.5039c4.20605 -110.309 93.1631 -199.264 203.472 -203.47v19.502c0 4.5127 3.65625 8.1709 8.16992 8.1709s8.16992 -3.6582 8.16992 -8.1709v-19.502z" />
    <glyph glyph-name="uniF115" unicode="&#xf115;" 
d="M266.909 448h245.072v-244.624l-250.093 -249.829c-11.333 -11.3164 -26.3887 -17.5469 -42.3994 -17.5469h-0.0429688c-16.0273 0.0107422 -31.0898 6.2627 -42.415 17.6035l-159.51 159.745c-23.3369 23.375 -23.3369 61.4072 -0.00292969 84.7812zM471.982 219.957
v188.043h-188.481l-237.673 -238.129c-7.7793 -7.79199 -7.7793 -20.4688 -0.000976562 -28.2598l159.509 -159.743c3.77539 -3.78027 8.7959 -5.86426 14.1387 -5.86816h0.015625c5.33691 0 10.3535 2.07715 14.1318 5.84863zM343.98 312c0 17.6729 14.3262 32 32 32
c17.6729 0 32 -14.3271 32 -32s-14.3271 -32 -32 -32c-17.6738 0 -32 14.3271 -32 32z" />
    <glyph glyph-name="uniF104" unicode="&#xf104;" 
d="M462.622 407c27.2266 0 49.3779 -22.3945 49.3779 -49.9229v-239.387c0 -27.5273 -22.1514 -49.9238 -49.3779 -49.9238h-254.601l-84.7559 -84.8965c-5.73242 -5.74219 -14.3428 -7.43652 -21.7998 -4.35156c-7.47656 3.09473 -12.3535 10.3896 -12.3535 18.4814
v70.7666h-39.7344c-27.2266 0 -49.3779 22.3955 -49.3779 49.9238v239.387c0 27.5283 22.1514 49.9229 49.3779 49.9229h413.244zM472 117.69v239.387c0 5.4707 -4.20703 9.92285 -9.37793 9.92285h-413.244c-5.1709 0 -9.37793 -4.45215 -9.37793 -9.92285v-239.387
c0 -5.47168 4.20703 -9.92383 9.37793 -9.92383h59.7354c11.0459 0 20 -8.95312 20 -20v-42.4258l56.4609 56.5566c3.75195 3.75781 8.84277 5.86914 14.1533 5.86914h262.895c5.1709 0 9.37793 4.45117 9.37793 9.92383zM229 237.5c0 14.9121 12.0879 27 27 27
s27 -12.0879 27 -27s-12.0879 -27 -27 -27s-27 12.0879 -27 27zM111.49 237.5c0 14.9121 12.0879 27 27 27c14.9111 0 27 -12.0879 27 -27s-12.0889 -27 -27 -27c-14.9121 0 -27 12.0879 -27 27zM346.51 237.5c0 14.9121 12.0889 27 27 27c14.9121 0 27 -12.0879 27 -27
s-12.0879 -27 -27 -27c-14.9111 0 -27 12.0879 -27 27z" />
    <glyph glyph-name="uniF17F" unicode="&#xf17f;" 
d="M256 448c141.376 0 256 -114.624 256 -256s-114.624 -256 -256 -256s-256 114.624 -256 256s114.624 256 256 256zM256 -16c114.688 0 208 93.3115 208 208s-93.3115 208 -208 208s-208 -93.3115 -208 -208s93.3115 -208 208 -208zM360.96 271.809
c5.80762 -0.224609 11.5674 -2.40039 16.0156 -6.84863c4.44824 -4.43262 6.6084 -10.208 6.84863 -16.0156c0.254883 -6.44922 -1.90527 -12.9756 -6.84863 -17.9199l-128 -128c-4.68848 -4.68848 -10.832 -7.02441 -16.9756 -7.02441
c-6.14453 0 -12.2881 2.33594 -16.9766 7.02441l-80 80c-4.94434 4.92773 -7.12012 11.4707 -6.84863 17.9199c0.240234 5.80762 2.41602 11.583 6.84863 16.0156c4.43164 4.44824 10.208 6.6084 16.0156 6.84863c6.44824 0.255859 12.9912 -1.9043 17.9199 -6.84863
l63.041 -63.0234l111.04 111.023c4.92871 4.94434 11.4727 7.12012 17.9199 6.84863z" />
    <glyph glyph-name="uniF173" unicode="&#xf173;" 
d="M496.64 215.04c-33.2793 12.7998 -71.6797 15.3604 -110.08 5.12012c7.68066 -10.2402 15.3604 -23.04 20.4805 -35.8398c2.55957 -5.12012 2.55957 -10.2402 0 -12.8008l-128 -128c-5.12012 -5.11914 -10.2402 -5.11914 -15.3604 -2.55957
c-12.7998 5.12012 -25.5996 12.7998 -38.3994 20.4805c-10.2402 -38.4004 -7.68066 -76.8008 5.12012 -110.08c-74.2402 28.1592 -110.08 104.96 -97.2803 184.319c-76.7998 79.3604 -130.561 189.44 -133.12 299.521c0 7.67969 5.12012 12.7998 12.7998 12.7998
c110.08 -2.55957 220.16 -56.3203 299.521 -135.68c81.9199 15.3594 156.16 -23.04 184.319 -97.2803zM215.04 232.96c20.4795 20.4805 20.4795 51.2002 0 71.6797c-20.4805 20.4805 -51.2002 20.4805 -71.6797 0c-20.4805 -20.4795 -20.4805 -51.1992 0 -71.6797
c20.4795 -20.4795 51.1992 -20.4795 71.6797 0zM504.32 79.3604c10.2393 -10.2402 10.2393 -25.6006 0 -35.8408c-10.2402 -10.2393 -25.6006 -10.2393 -35.8398 0l-53.7607 53.7607c-10.2393 10.2393 -10.2393 25.5996 0 35.8398
c10.2402 10.2402 25.6006 10.2402 35.8398 0zM404.48 -20.4805c10.2393 -10.2393 10.2393 -25.5996 0 -35.8398c-10.2402 -10.2393 -25.6006 -10.2393 -35.8408 0l-53.7598 53.7607c-10.2402 10.2393 -10.2402 25.5996 0 35.8398c10.2402 10.2393 25.6006 10.2393 35.8398 0
zM473.6 7.67969c10.2402 -10.2393 10.2402 -25.5996 0 -35.8398c-10.2393 -10.2402 -25.5996 -10.2402 -35.8398 0l-74.2402 74.2402c-10.2393 10.2402 -10.2393 25.5996 0 35.8398c10.2402 10.2402 25.6006 10.2402 35.8408 0z" />
    <glyph glyph-name="uniF10A" unicode="&#xf10a;" 
d="M256 272c44.1133 0 80 -35.8877 80 -80s-35.8877 -80 -80 -80s-80 35.8877 -80 80s35.8867 80 80 80zM256 152c22.0557 0 40 17.9443 40 40s-17.9443 40 -40 40s-40 -17.9443 -40 -40s17.9443 -40 40 -40zM502.164 132.363
c8.02832 -6.15234 10.2002 -17.3301 5.05859 -26.041l-50.1514 -84.9785c-4.99609 -8.46484 -15.4043 -12.0459 -24.5537 -8.44238l-61.4453 24.1982c-11.2207 -8.0293 -23.2324 -14.835 -35.9033 -20.3398l-9.22363 -63.6299
c-1.42676 -9.83398 -9.85645 -17.1299 -19.793 -17.1299h-100.305c-9.93652 0 -18.3662 7.2959 -19.793 17.1309l-9.22363 63.6299c-12.6709 5.50488 -24.6826 12.3115 -35.9033 20.3398l-61.4453 -24.1982c-9.14941 -3.60352 -19.5576 -0.0234375 -24.5537 8.44238
l-50.1504 84.9785c-5.14258 8.71094 -2.9707 19.8887 5.05859 26.041l51.7881 39.6826c-1.36719 12.8867 -1.45605 26.1816 0 39.9072l-51.7891 39.6816c-8.02832 6.15234 -10.2002 17.3301 -5.05859 26.041l50.1523 84.9775
c4.99609 8.46582 15.4033 12.0469 24.5537 8.44238l61.4443 -24.1992c11.2227 8.03027 23.2334 14.835 35.9043 20.3408l9.22363 63.6299c1.42578 9.83594 9.85547 17.1318 19.792 17.1318h100.305c9.93652 0 18.3662 -7.2959 19.793 -17.1309l9.22363 -63.6299
c12.6709 -5.50488 24.6816 -12.3105 35.9043 -20.3408l61.4443 24.1992c9.14844 3.60352 19.5576 0.0234375 24.5537 -8.44238l50.1514 -84.9785c5.14258 -8.71094 2.9707 -19.8887 -5.05859 -26.041l-51.7881 -39.6826c1.36719 -12.8867 1.45605 -26.1816 0 -39.9072z
M431.297 56.374l32.4697 55.0186l-46.96 35.9844c-5.90137 4.52246 -8.80859 11.9463 -7.54492 19.2744c2.84766 16.5117 2.94434 33.624 0 50.6982c-1.26367 7.32812 1.64355 14.751 7.54492 19.2744l46.96 35.9844l-32.4697 55.0186l-56.0469 -22.0732
c-6.71289 -2.64355 -14.3281 -1.46777 -19.9297 3.07715c-13.5244 10.9717 -28.7031 19.5557 -45.1143 25.5137c-6.92773 2.51562 -11.9102 8.63672 -12.9678 15.9307l-8.39551 57.9248h-65.6846l-8.39648 -57.9248c-1.05762 -7.29395 -6.04004 -13.415 -12.9678 -15.9307
c-16.4111 -5.95801 -31.5898 -14.542 -45.1143 -25.5137c-5.60156 -4.54395 -13.2148 -5.72168 -19.9297 -3.07715l-56.0469 22.0732l-32.4707 -55.0186l46.96 -35.9844c5.90137 -4.52246 8.80859 -11.9463 7.54492 -19.2744c-2.84766 -16.5117 -2.94434 -33.624 0 -50.6982
c1.26367 -7.32812 -1.64355 -14.751 -7.54492 -19.2744l-46.96 -35.9844l32.4707 -55.0186l56.0469 22.0732c6.71191 2.64258 14.3281 1.4668 19.9297 -3.07715c13.5234 -10.9717 28.7021 -19.5557 45.1143 -25.5146c6.92773 -2.51562 11.9102 -8.63672 12.9678 -15.9307
l8.39551 -57.9248h65.6846l8.39648 57.9248c1.05762 7.29395 6.04004 13.415 12.9678 15.9307c16.4121 5.95801 31.5908 14.542 45.1143 25.5146c5.60156 4.54395 13.2139 5.71973 19.9297 3.07715z" />
    <glyph glyph-name="uniF143" unicode="&#xf143;" 
d="M495.999 96c8.83203 0 16.001 -7.16699 16 -16v-127.999c0 -8.83105 -7.16797 -16 -16 -16h-479.999c-8.83105 0 -16 7.16797 -16 16v127.999c0 8.83301 7.16992 16 16.001 16s16 -7.16699 16 -16v-111.999h447.998v111.999c0 8.83105 7.16797 16 16 16zM244.32 68.6885
l-111.97 110.4c-6.31934 6.24023 -6.31934 16.3682 0 22.624c6.30469 6.25586 16.5283 6.25586 22.8477 0l84.4004 -83.2002v313.487c0 8.83105 7.23242 16 16.1602 16c8.92871 0 16.1611 -7.16699 16.1611 -16v-313.487l84.4004 83.2002
c6.30371 6.25586 16.543 6.25586 22.8477 0c6.30371 -6.24023 6.31934 -16.3682 0 -22.624l-111.984 -110.4c-6.22266 -6.22363 -16.6387 -6.16016 -22.8633 0z" />
    <glyph glyph-name="uniF12A" unicode="&#xf12a;" 
d="M374 417c81.085 0 138 -72.0068 138 -156.667c0 -131.221 -130.437 -231.315 -246.861 -291.123c-5.73535 -2.94727 -12.542 -2.94727 -18.2773 0c-116.364 59.7783 -246.861 159.97 -246.861 291.123c0 84.8096 57.0439 156.667 138 156.667
c58.2139 0 97.4824 -29.5 118 -50.4043c20.5176 20.9043 59.7861 50.4043 118 50.4043zM256 9.55078c97.9277 51.7441 216 140.536 216 250.782c0 60.7217 -38.0225 116.667 -98 116.667c-66.6777 0 -100.853 -51.8135 -101.19 -52.3369
c-3.7002 -5.74121 -10.0029 -9.26953 -16.8535 -9.24512c-6.81348 0.0332031 -13.0859 3.4502 -16.7363 9.2002c-16.4521 24.5 -53.9131 52.3818 -101.22 52.3818c-59.9648 0 -98 -55.9219 -98 -116.667c0 -110.315 117.865 -198.929 216 -250.782z" />
    <glyph glyph-name="uniF150" unicode="&#xf150;" 
d="M41.6748 -20.7383c-8.73242 0 -16.2734 7.14453 -16.2734 15.876v363.56c0 9.12891 7.14453 16.2734 16.2734 16.2734h83.3486v13.8916c0 9.12793 7.14355 16.2725 16.2725 16.2725s16.2734 -7.14453 16.2734 -16.2725v-13.8916h199.243v13.8916
c0 9.12793 7.14453 16.2725 16.2725 16.2725c9.12891 0 16.2734 -7.14453 16.2734 -16.2725v-13.8916h80.5703c9.12891 0 16.2725 -7.14453 16.2725 -16.2734v-363.162c0 -9.12891 -7.14355 -16.2734 -16.2725 -16.2734h-428.254zM57.9473 342.425v-42.0713h396.105v42.0713
h-64.6943v-8.73145c0 -9.12891 -7.14453 -16.2734 -16.2734 -16.2734c-9.12793 0 -16.2725 7.14453 -16.2725 16.2734v8.73145h-199.243v-8.73145c0 -9.12891 -7.14453 -16.2734 -16.2734 -16.2734s-16.2725 7.14453 -16.2725 16.2734v8.73145h-67.0762zM57.9473 267.808
v-256.396h395.709v256.396h-395.709zM373.085 193.19c9.12891 0 16.2734 -7.14355 16.2734 -16.2725s-7.14453 -16.2734 -16.2734 -16.2734h-234.17c-9.12891 0 -16.2734 7.14453 -16.2734 16.2734s7.14453 16.2725 16.2734 16.2725h234.17zM256 114.604
c9.12891 0 16.2725 -7.14355 16.2725 -16.2725s-7.14355 -16.2734 -16.2725 -16.2734h-117.085c-9.12891 0 -16.2734 7.14453 -16.2734 16.2734s7.14453 16.2725 16.2734 16.2725h117.085z" />
    <glyph glyph-name="uniF169" unicode="&#xf169;" 
d="M342.845 377.558c-138.438 62.2979 -282.75 -37.8604 -291.874 -168.433c-16.6758 1.36328 -33.3516 2.83203 -50.9707 4.4043c10.3828 86.4199 50.6562 153.541 124.909 197.694c76.7705 45.7266 157.106 47.4043 239.54 12.6904
c-7.44629 -16.0469 -14.5781 -31.1484 -21.6045 -46.3564zM508.341 235.659c27.583 -169.377 -105.821 -294.392 -230.311 -298.796c-1.36328 16.4658 -2.83203 32.9316 -4.2998 49.8164c59.4648 6.60742 108.128 32.4072 144.416 79.3926
c36.4971 47.1943 48.873 101.102 39.958 160.882c17.2002 2.93652 33.666 5.87305 50.2363 8.70508zM50.2363 173.152c18.1436 -107.5 80.3359 -169.692 187.73 -187.626c-1.36328 -16.0459 -2.83203 -32.6172 -4.2998 -49.502
c-137.284 11.1172 -228.318 128.579 -232.198 232.933c16.4648 1.36328 32.9307 2.83105 48.7676 4.19531zM418.356 316.31c-12.6904 16.4658 -27.793 30.624 -44.7832 43.1045c9.96387 14.2637 19.6123 27.8975 29.3662 41.8467
c43.9434 -31.5684 74.8818 -71.8418 93.8652 -122.393c-16.4658 -5.97754 -32.1973 -11.7461 -48.1387 -17.5146c-7.65625 20.1367 -17.5146 38.3857 -30.3096 54.9561zM280.232 45.0967c0 -7.44629 -6.08301 -13.5293 -13.6338 -13.6338h-20.9756
c-7.44629 0 -13.5293 6.08301 -13.5293 13.5293v19.9268c-17.2002 3.25098 -33.875 9.96289 -48.873 20.1357l-14.0537 -14.0537c-5.34863 -5.24316 -13.8438 -5.24316 -19.1924 0l-14.7881 14.7881c-5.24316 5.34863 -5.24316 13.8438 0 19.1924l13.8447 14.1582
c-10.1738 14.8926 -16.8857 31.5684 -20.1367 48.7686h-19.9268c-7.44629 0 -13.5293 6.08301 -13.5293 13.5293v20.9756c0 7.44629 6.08301 13.5293 13.5293 13.5293h20.0312c3.25098 17.0947 9.96387 33.665 20.2412 48.5576l-14.2627 14.2637
c-5.24414 5.34863 -5.24414 13.8438 0 19.1924l14.7871 14.8926c5.34863 5.24414 13.8438 5.24414 19.1924 0l14.3691 -14.2637c14.8926 10.0684 31.4629 16.7812 48.4531 19.9268v20.5566c0 7.44629 6.08301 13.5293 13.5293 13.5293h20.9756
c7.44629 0 13.5283 -6.08301 13.5283 -13.5293v-20.6611c16.9902 -3.25098 33.4561 -9.96387 48.2441 -20.0312l14.6826 14.6826c5.34863 5.24414 13.8438 5.24414 19.1924 0l14.998 -14.8926c5.24316 -5.34863 5.24316 -13.8438 0 -19.1924l-14.6826 -14.6836
c10.0674 -14.7871 16.7803 -31.1484 20.0312 -48.1387h20.6611c7.44629 0 13.5283 -6.08301 13.5283 -13.5293v-20.9746c0 -7.44629 -6.08203 -13.5293 -13.5283 -13.5293h-20.5566c-3.14648 -16.9902 -9.75293 -33.5615 -19.8213 -48.4541l14.4727 -14.4727
c5.24414 -5.34863 5.24414 -13.8438 0 -19.1924l-14.7871 -14.7881c-5.34961 -5.24414 -13.8447 -5.24414 -19.1934 0l-14.2627 14.2637c-14.8926 -10.2783 -31.4639 -17.0947 -48.5586 -20.3467v-20.0312zM206.608 142.527
c27.373 -27.2676 71.6318 -27.1631 98.7949 0.105469c27.2676 27.2676 27.1631 71.5264 -0.105469 98.7939c-27.2676 27.2686 -71.5264 27.1641 -98.7939 -0.104492c-27.2686 -27.2686 -27.1631 -71.5264 0.104492 -98.7949z" />
    <glyph glyph-name="uniF12C" unicode="&#xf12c;" 
d="M503.171 -0.240234c5.52441 -5.51074 8.82812 -11.3438 8.82715 -16.7129v-2.52539c0 -4.73047 -0.915039 -8.53906 -2.52246 -11.3574c-2.1748 -3.80273 -5.36523 -7.87891 -9.77832 -12.3008l-6.31152 -6.30566c-4.41406 -4.41406 -8.49219 -7.60254 -12.3008 -9.77637
c-2.81934 -1.61621 -6.29785 -2.5918 -10.0938 -2.83984c-0.941406 -0.0605469 -1.89062 0 -3.14844 0.314453c-5.36328 0.632812 -11.0361 3.79004 -16.4053 9.14648l-140.992 140.675l-5.04688 -3.15527c-33.2334 -20.7725 -69.0732 -32.1709 -108.498 -32.1709
c-50.7832 0 -101.157 19.6484 -139.102 57.4053c-25.4561 25.3281 -42.2637 54.8799 -51.0996 88.6338c-8.82812 33.7529 -9.03711 67.1553 0 101.251c8.94238 33.7188 25.7383 63.5225 51.0996 88.6279c38.0391 37.6621 88.3184 57.4121 139.102 57.4121
c51.4102 0 101.46 -19.6562 139.412 -57.4121c21.3506 -21.2295 36.7402 -45.9922 46.3691 -73.8037c7.40137 -21.3975 11.0352 -43.2129 11.0352 -64.9746c0 -6.62793 -0.295898 -13.5654 -0.942383 -20.1875c-2.81934 -28.7051 -11.9912 -55.8301 -26.8145 -80.748
c-0.942383 -4.10449 -1.89062 -7.25293 -3.15527 -9.15137zM353.343 207.618c7.42285 27.7979 7.25391 55.5146 0 83.2705c-7.25391 27.7568 -21.668 51.8271 -42.2646 72.5459c-31.4453 31.6406 -69.0732 47.6279 -114.179 47.6279
c-42.8965 0 -83.3779 -17.5635 -114.5 -47.6279c-61.6162 -59.5176 -61.8721 -169.726 0 -228.678c31.4912 -29.999 71.9131 -47.3125 114.5 -47.3125c43.208 0 83.8984 17.0381 114.179 47.3125c20.8193 20.8193 34.8623 45.1445 42.2646 72.8613zM216.14 332.213v-63.7168
h64.0264v-38.167h-64.0264v-64.0254h-38.167v64.0254h-63.7168v38.167h63.7168v63.7168h38.167z" />
    <glyph glyph-name="uniF158" unicode="&#xf158;" 
d="M427.636 296.727c9.6416 0 17.4551 -7.81348 17.4561 -17.4531v-290.91c0 -28.876 -23.4883 -52.3643 -52.3643 -52.3643h-273.454c-28.8701 0 -52.3643 23.4883 -52.3643 52.3643v290.909c0 9.64062 7.81348 17.4541 17.4551 17.4541h343.271zM410.182 -11.6357v273.454
h-308.363v-273.454c0 -9.62402 7.83203 -17.4551 17.4551 -17.4551h273.453c9.62402 0 17.4551 7.83203 17.4551 17.4551zM258.909 448c57.7461 0 104.727 -46.9824 104.729 -104.727v-145.455c0 -9.6416 -7.81348 -17.4551 -17.4551 -17.4551
c-9.64062 0 -17.4551 7.81348 -17.4551 17.4551v145.455c0 38.499 -31.3184 69.8174 -69.8174 69.8174s-69.8184 -31.3184 -69.8184 -69.8174v-145.455c0 -9.6416 -7.81348 -17.4551 -17.4551 -17.4551c-9.64062 0 -17.4551 7.81348 -17.4551 17.4551v145.455
c0 57.7441 46.9824 104.727 104.728 104.727z" />
    <glyph glyph-name="uniF121" unicode="&#xf121;" 
d="M491.422 309.141c13.6543 -27.9307 20.5781 -60.4453 20.5781 -96.6406s-6.92383 -68.709 -20.5781 -96.6406c-13.0078 -26.6094 -32.1289 -49.1504 -56.8311 -66.999c-43.7881 -31.6377 -105.544 -48.3604 -178.591 -48.3604
c-20.4424 0 -40.1855 1.31348 -58.8457 3.90918c-42.3291 -42.4609 -94.3887 -44.9092 -105.735 -44.9092h-0.319336h-0.103516l-35.9551 0.0527344l18.9834 30.5205c0.0986328 0.162109 11.1064 18.3008 19.5908 48.2314
c-61.3301 36.0234 -93.6152 95.9111 -93.6152 174.195c0 36.1953 6.92383 68.709 20.5781 96.6406c13.0078 26.6094 32.1289 49.1514 56.8311 66.999c43.7881 31.6387 105.544 48.3604 178.591 48.3604s134.803 -16.7227 178.591 -48.3604
c24.7021 -17.8477 43.8232 -40.3896 56.8311 -66.999zM411.164 81.2832c40.3682 29.167 60.8359 73.3145 60.8359 131.217s-20.4678 102.051 -60.8359 131.217c-36.9258 26.6816 -90.5811 40.7832 -155.164 40.7832s-118.238 -14.1025 -155.164 -40.7832
c-40.3682 -29.166 -60.8359 -73.3135 -60.8359 -131.217c0 -68.877 28.8184 -118.016 85.6543 -146.051l14.0723 -6.94141l-3.39453 -15.3213c-3.29297 -14.8662 -7.37402 -27.9131 -11.4043 -38.7852c15.5186 5.22852 33.7979 15.0488 49.6318 33.4385l7.36914 8.56055
l11.1367 -1.8916c19.5693 -3.32422 40.7432 -5.00879 62.9346 -5.00879c64.583 0 118.237 14.1025 155.164 40.7832z" />
    <glyph glyph-name="uniF134" unicode="&#xf134;" 
d="M256 448c99.8398 0 179.2 -79.3604 179.2 -179.2c0 -133.12 -179.2 -332.8 -179.2 -332.8s-179.2 199.68 -179.2 332.8c0 99.8398 79.3604 179.2 179.2 179.2zM256 204.8c35.8398 0 64 28.1602 64 64s-28.1602 64 -64 64s-64 -28.1602 -64 -64s28.1602 -64 64 -64z" />
    <glyph glyph-name="uniF100" unicode="&#xf100;" 
d="M256 448c140.8 0 256 -115.2 256 -256s-115.2 -256 -256 -256s-256 115.2 -256 256s115.2 256 256 256zM204.8 76.7998l153.601 115.2l-153.601 115.2v-230.4z" />
    <glyph glyph-name="uniF11A" unicode="&#xf11a;" 
d="M437.019 373.019c48.3535 -48.3516 74.9814 -112.638 74.9814 -181.019s-26.6279 -132.668 -74.9805 -181.02c-48.3525 -48.3535 -112.639 -74.9805 -181.02 -74.9805s-132.668 26.6279 -181.02 74.9805c-48.3535 48.3525 -74.9805 112.639 -74.9805 181.02
s26.6279 132.668 74.9814 181.02c48.3516 48.3535 112.64 74.9805 181.019 74.9805s132.667 -26.6279 181.019 -74.9814zM256 -33.4424c124.308 0 225.442 101.134 225.442 225.442s-101.133 225.443 -225.442 225.443s-225.443 -101.136 -225.443 -225.443
s101.135 -225.442 225.443 -225.442zM256 330.518c8.43652 0 15.2783 -6.83984 15.2793 -15.2783v-192.5c0 -8.43848 -6.83984 -15.2793 -15.2793 -15.2793c-8.43848 0 -15.2793 6.84082 -15.2793 15.2793v192.5c0 8.4375 6.84082 15.2783 15.2793 15.2783zM256 84.0391
c8.56543 0 14.9072 -7.00098 15.2793 -15.2793c0.369141 -8.25195 -7.28711 -15.2783 -15.2793 -15.2783c-8.56641 0 -14.9072 7.00098 -15.2793 15.2783c-0.369141 8.25195 7.28711 15.2793 15.2793 15.2793z" />
    <glyph glyph-name="uniF17B" unicode="&#xf17b;" 
d="M248.718 447.87c116.104 4.09375 211.529 -88.8115 211.529 -204.076c0 -13.2275 -1.25977 -26.1396 -3.67383 -38.7373v0s-0.419922 -2.30859 -1.36523 -6.40332c-3.14941 -14.1719 -7.76758 -27.7139 -13.752 -40.5215
c-20.5752 -48.709 -67.9199 -129.856 -174.157 -218.038c-6.61328 -5.45801 -16.167 -5.45801 -22.6748 0c-106.237 88.2861 -153.582 169.434 -174.053 217.934c-5.87891 12.8066 -10.6025 26.4541 -13.752 40.5215c-1.0498 4.19922 -1.36523 6.40332 -1.36523 6.40332v0
c-3.56934 18.791 -4.72363 38.4219 -2.72949 58.6826c9.76367 101.303 94.2695 180.666 195.993 184.235zM255.961 142.176c54.7988 0 99.2041 44.4053 99.2041 99.2031c0 54.7988 -44.4053 99.2041 -99.2041 99.2041c-54.7979 0 -99.2031 -44.4053 -99.2031 -99.2041
c0 -54.7979 44.4053 -99.2031 99.2031 -99.2031z" />
    <glyph glyph-name="uniF141" unicode="&#xf141;" 
d="M0 157.223c0 26.041 19.7998 47.8623 44.1289 53.5723c-17.6924 15.1523 -27.3428 37.6025 -27.3428 62.665c0 45.5156 37.0322 82.5547 82.5547 82.5547c22.8525 0 43.54 -9.3457 58.5039 -24.3945c13.6035 44.7451 55.1924 77.4229 104.325 77.4229
c60.1504 0 109.023 -48.9385 109.023 -109.082c0 -36.0283 -17.7314 -67.9346 -44.7383 -87.8047c25.6846 -1.19922 46.6045 -20.0137 51.2842 -44.6543l96.8584 48.8857c1.80859 0.907227 2.98828 1.38086 5.00977 1.38086c19.0742 0 32.3926 -15.5156 32.3926 -35.335
v-167.806c0 -19.8193 -14.1289 -35.3477 -33.2021 -35.3477c-2.02832 0 -3.2207 0.472656 -5.03613 1.39355l-97.8633 48.6143v-1.7373c0 -30.3574 -21.458 -52.5938 -51.8223 -52.5938h-265.773c-30.3564 0 -58.3027 22.2305 -58.3027 52.5938v129.672zM480.379 191.501
l-104.48 -52.5029v-80.6689l104.494 -52.7812c3.8877 1.18555 5.68359 5.25586 5.68359 9.08008v167.806c0 3.81738 -1.7959 7.88086 -5.69727 9.06738zM173.315 239.467c-4.65332 -9.39062 -11.0176 -18.2305 -18.7109 -24.7119h43.0146
c-9.35254 6.48145 -17.5703 15.2236 -24.3037 24.7119zM179.07 299.954c0 -2.26855 0.162109 -4.50391 0.34375 -6.7334c1.05664 -4.25781 1.79492 -8.63281 2.1582 -13.124c8.94336 -36.2676 41.6533 -63.2812 80.6426 -63.2812c45.8535 0 83.1514 37.2988 83.1514 83.1387
c0 45.8535 -37.2979 83.1582 -83.1514 83.1582c-45.8467 0 -83.1445 -37.3047 -83.1445 -83.1582zM99.3535 330.084c-31.2314 0 -56.6367 -25.4053 -56.6367 -56.6309s25.4053 -56.6309 56.6367 -56.6309c31.2256 0 56.6318 25.4053 56.6318 56.6309
c0 0.914062 -0.0976562 1.7959 -0.136719 2.69629c-0.958984 4.29688 -1.72363 8.66504 -2.1582 13.1309c-6.86914 23.5391 -28.6064 40.8037 -54.3369 40.8037zM349.975 30.0205v129.672c0 16.0918 -13.0459 29.1387 -29.1387 29.1387h-265.773
c-16.0918 0 -29.1387 -13.0469 -29.1387 -29.1387v-129.672c0 -16.0928 13.0469 -29.1387 29.1387 -29.1387h265.773c16.0928 0 29.1387 13.0459 29.1387 29.1387z" />
    <glyph glyph-name="uniF152" unicode="&#xf152;" 
d="M255.999 448c91.377 0 165.716 -74.3398 165.72 -165.714c0 -136.847 -151.041 -333.915 -157.471 -342.236c-2.05273 -2.65723 -5.13672 -4.0498 -8.25195 -4.0498c-2.22461 0 -4.4668 0.708984 -6.36328 2.17383c-4.55469 3.5166 -5.39355 10.0596 -1.87695 14.6152
c1.53125 1.98047 153.123 199.764 153.123 329.495c0 79.8867 -64.9912 144.878 -144.878 144.878s-144.878 -64.9932 -144.878 -144.878c0 -42.3574 17.5254 -120.665 101.019 -253.183c3.06836 -4.86719 1.6084 -11.3008 -3.25977 -14.3682
c-4.87012 -3.06836 -11.3027 -1.60742 -14.3691 3.26172c-47.5498 75.4639 -104.229 182.573 -104.229 264.289c0 91.376 74.3408 165.716 165.716 165.716zM255.999 335.126c-29.1348 0 -52.8418 -23.7051 -52.8418 -52.8418s23.7051 -52.8418 52.8418 -52.8418
s52.8428 23.7051 52.8428 52.8418c0 11.6377 -3.70801 22.6758 -10.7236 31.915c-3.47949 4.58496 -2.58398 11.1211 1.99902 14.5996c4.58398 3.47754 11.1201 2.58398 14.5986 -1.99902c9.79102 -12.8975 14.9639 -28.29 14.9639 -44.5156
c0 -40.6279 -33.0527 -73.6807 -73.6807 -73.6807s-73.6807 33.0527 -73.6807 73.6807s33.0527 73.6807 73.6807 73.6807c5.75293 0 10.4189 -4.66602 10.4189 -10.4189c0 -5.75391 -4.66602 -10.4199 -10.4189 -10.4199z" />
    <glyph glyph-name="uniF127" unicode="&#xf127;" 
d="M256 448c81.0234 0 146.941 -65.917 146.941 -146.941c0 -81.0234 -65.918 -146.94 -146.941 -146.94s-146.941 65.917 -146.941 146.94c0 81.0244 65.918 146.941 146.941 146.941zM256 194.118c58.9678 0 106.941 47.9736 106.941 106.94
c0 58.9678 -47.9736 106.941 -106.941 106.941s-106.941 -47.9727 -106.941 -106.941c0 -58.9678 47.9736 -106.94 106.941 -106.94zM263.362 134.639c98.501 0 178.638 -80.1367 178.638 -178.639c0 -11.0459 -8.9541 -20 -20 -20h-332
c-5.30469 0 -10.3916 2.10742 -14.1426 5.8584c-3.75 3.75098 -5.85742 8.83789 -5.85742 14.1416c0 98.502 80.1367 178.639 178.639 178.639h14.7236zM111.438 -24h289.122c-9.7207 67.0059 -67.543 118.639 -137.199 118.639h-14.7236
c-69.6562 0 -127.479 -51.6328 -137.199 -118.639z" />
    <glyph glyph-name="uniF177" unicode="&#xf177;" 
d="M203.781 217.473c0 28.1367 22.8086 50.9453 50.9453 50.9453c28.1357 0 50.9453 -22.8086 50.9453 -50.9453s-22.8096 -50.9453 -50.9453 -50.9453c-28.1367 0 -50.9453 22.8086 -50.9453 50.9453zM499.264 220.02c5.09473 -2.54688 10.1895 -7.6416 12.7363 -12.7363
v-30.5664c0 -5.09473 -5.09473 -12.7363 -10.1895 -12.7363l-45.8506 -10.1895c-5.09473 -28.0195 -15.2832 -50.9453 -30.5674 -73.8711l22.9258 -40.7559c2.54688 -5.09473 2.54688 -10.1885 -2.54688 -15.2832l-22.9258 -22.9258
c-2.54688 -5.09473 -10.1895 -5.09473 -15.2832 -2.54688l-40.7568 25.4727c-20.3779 -15.2842 -45.8506 -25.4727 -73.8701 -30.5674l-10.1895 -45.8506c-2.54688 -5.09473 -7.6416 -10.1895 -12.7363 -10.1895h-30.5674c-5.09375 0 -10.1885 5.09473 -12.7363 7.6416
l-10.1885 45.8516c-28.0205 5.09375 -50.9453 15.2832 -73.8711 30.5664l-40.7559 -22.9248c-5.09473 -2.54785 -10.1895 -2.54785 -15.2832 2.54688l-22.9258 22.9258c-5.09473 5.09473 -5.09473 10.1885 -2.54688 15.2832l25.4727 38.209
c-15.2842 20.3779 -25.4727 45.8506 -30.5674 73.8711l-45.8506 12.7363c-5.09473 2.54688 -10.1895 7.6416 -10.1895 12.7363v30.5664c0 5.09473 5.09473 10.1895 10.1895 12.7363l43.3027 10.1895c5.09473 25.4727 15.2842 50.9453 30.5674 73.8711l-22.9248 40.7559
c-2.54785 5.09473 -2.54785 12.7363 2.54688 15.2832l22.9258 22.9258c2.54688 5.09473 10.1885 5.09473 15.2832 2.54688l38.209 -25.4727c22.9248 15.2842 48.3975 25.4727 76.418 30.5674l10.1885 45.8506c2.54785 5.09473 7.64258 10.1895 12.7363 10.1895h30.5674
c5.09473 0 10.1895 -5.09473 12.7363 -7.6416l10.1895 -45.8516c28.0195 -5.09375 53.4922 -15.2832 73.8701 -30.5664l40.7568 22.9248c5.09375 2.54785 10.1885 2.54785 15.2832 -2.54688l22.9258 -22.9258c5.09375 -5.09473 5.09375 -10.1885 2.54688 -15.2832
l-25.4727 -40.7559c15.2832 -20.3789 25.4727 -45.8516 30.5674 -73.8711zM328.597 85.0146c96.7959 56.04 58.5869 234.349 -73.8701 234.349c-68.7764 0 -127.363 -56.04 -127.363 -127.363c0 -43.3037 20.3779 -81.5127 53.4922 -104.438
c10.1895 30.5664 40.7568 53.4922 73.8711 53.4922c35.6611 0 63.6816 -22.9258 73.8701 -56.04z" />
    <glyph glyph-name="uniF140" unicode="&#xf140;" 
d="M349.796 325.489h94.1133v-389.489h-375.818v389.489h94.1133v28.7148c0 51.7188 42.0762 93.7959 93.7959 93.7959s93.7959 -42.0771 93.7959 -93.7959v-28.7148zM193.874 354.204v-28.7148h124.252v28.7148c0 34.2559 -27.8691 62.126 -62.126 62.126
s-62.126 -27.8701 -62.126 -62.126zM412.239 -32.3301v326.149h-62.4434v-36.9482h-31.6699v36.9482h-124.252v-36.9482h-31.6699v36.9482h-62.4434v-326.149h312.479z" />
    <glyph glyph-name="uniF11F" unicode="&#xf11f;" 
d="M494.426 342.427c11.333 -11.332 17.5742 -26.3994 17.5742 -42.4268v-269.037c0 -33.084 -26.916 -60 -60 -60h-392c-33.084 0 -60 26.916 -60 60v322.074c0 33.084 26.916 60 60 60h154.259l30.71 -46.0645c2.91309 -4.36719 7.87793 -6.97266 13.2881 -6.97266
h0.0400391l193.702 -0.00390625h0.0107422c16.0205 0 31.084 -6.23926 42.416 -17.5693zM40 353.037v-49.4424c6.33789 2.23438 13.0801 3.39844 19.999 3.39844h0.0117188l132.467 0.00585938l19.291 28.0693c1.11914 1.66699 2.3252 3.26855 3.6084 4.79395
c-1.30957 1.56055 -2.54297 3.20312 -3.68848 4.92188l-18.8359 28.2529h-132.853c-11.0283 0 -20 -8.97168 -20 -20zM472 30.9629v269.037c0 5.3418 -2.08008 10.3643 -5.85742 14.1406c-3.77734 3.77734 -8.79883 5.85645 -14.1396 5.85547l-193.657 0.00390625
c-0.114258 0.000976562 -0.230469 0 -0.345703 0c-4.8291 0 -10.1895 -2.98047 -13.0342 -7.24707l-0.158203 -0.233398l-31.2842 -45.5186l-153.516 -0.0078125h-0.00390625c-5.3457 0 -10.3682 -2.08008 -14.1445 -5.85645
c-3.77832 -3.77832 -5.85938 -8.80078 -5.85938 -14.1436v-3.99316v-212.037c0 -11.0283 8.97168 -20 20 -20h392c11.0283 0 20 8.97168 20 20z" />
    <glyph glyph-name="uniF165" unicode="&#xf165;" 
d="M8.58887 226.133c-4.70996 0 -8.5332 3.82324 -8.5332 8.5332s3.82324 8.5332 8.5332 8.5332h17.0674c4.70996 0 8.5332 -3.82324 8.5332 -8.5332s-3.82324 -8.5332 -8.5332 -8.5332h-17.0674zM442.074 360.951c93.1592 -93.166 93.1592 -244.744 0.00878906 -337.903
c-11.75 -11.751 -24.5332 -22.0928 -38.1006 -31.0186l21.8447 -43.6826c2.10742 -4.21582 0.391602 -9.33594 -3.82324 -11.4521c-1.21973 -0.605469 -2.52637 -0.895508 -3.80566 -0.895508c-3.13184 0 -6.14453 1.72363 -7.64648 4.71875l-21.2217 42.4531
c-35.1396 -19.6191 -74.8545 -30.1055 -116.207 -30.1055c-41.3516 0 -81.0664 10.4863 -116.198 30.1133l-21.2305 -42.4619c-1.50195 -2.99512 -4.51465 -4.71875 -7.64648 -4.71875c-1.28027 0 -2.58594 0.290039 -3.80566 0.895508
c-4.21582 2.11719 -5.93164 7.2373 -3.82324 11.4521l21.8545 43.6914c-13.5762 8.91699 -26.3516 19.2598 -38.1016 31.0098c-25.5059 25.5059 -44.4834 55.5605 -56.3877 89.335c-1.57031 4.44629 0.758789 9.31934 5.20508 10.8896
c4.44531 1.56934 9.31836 -0.768555 10.8887 -5.21484c11.0508 -31.3428 28.6719 -59.2559 52.3613 -82.9434c11.9883 -11.9893 25.1475 -22.374 39.1504 -31.1895c0.700195 -0.144531 1.41602 -0.22168 2.08203 -0.554688
c1.2207 -0.614258 2.15918 -1.51953 2.92773 -2.54297c33.792 -20.002 72.4307 -30.6943 112.725 -30.6943c40.2949 0 78.9326 10.6846 112.717 30.6865c0.768555 1.02441 1.70605 1.9375 2.93555 2.55176c0.673828 0.333008 1.39062 0.417969 2.09863 0.5625
c14.0029 8.80762 27.1533 19.1924 39.1416 31.1816c86.4932 86.5029 86.4932 227.26 -0.00878906 313.771c-41.9072 41.8984 -97.6211 64.9814 -156.885 64.9814s-114.979 -23.082 -156.885 -64.9814c-23.6709 -23.6797 -41.2842 -51.5752 -52.3438 -82.9268
c-1.56152 -4.44629 -6.4502 -6.78418 -10.8799 -5.20508c-4.44531 1.57129 -6.7832 6.44336 -5.21387 10.8887c11.9121 33.7676 30.873 63.8125 56.3711 89.3105c43.1104 43.1094 99.7969 67.6611 160.418 69.7764v8.73828c0 4.70996 3.82324 8.5332 8.5332 8.5332
s8.5332 -3.82324 8.5332 -8.5332v-8.73926c60.6211 -2.11523 117.308 -26.667 160.418 -69.7764zM17.123 192c0 4.70996 3.82324 8.5332 8.5332 8.53223h44.6631l-17.8438 29.7393c-1.58691 2.63672 -1.62988 5.92285 -0.110352 8.60156
c1.50977 2.66992 4.35156 4.32617 7.42383 4.32617h32.793c8.69531 30.7109 25.0615 58.8105 47.7949 81.5439c35.4561 35.4561 82.6035 54.9893 132.745 54.9893s97.2891 -19.5332 132.745 -54.9893c73.1992 -73.1914 73.1992 -192.299 0.00878906 -265.498
c-35.4561 -35.4473 -82.6025 -54.9805 -132.745 -54.9805c-50.1416 0 -97.2881 19.5332 -132.753 54.9893c-15.3857 15.3857 -27.8623 33.084 -37.0693 52.5908c-2.01367 4.26758 -0.1875 9.35352 4.0791 11.3584c4.25879 2.00586 9.34473 0.1875 11.3584 -4.07031
c8.36328 -17.7314 19.7031 -33.8164 33.6982 -47.8115c32.2383 -32.2305 75.1016 -49.9883 120.687 -49.9883s88.4395 17.75 120.678 49.9805c66.5342 66.5508 66.5254 174.821 -0.00878906 241.364c-32.2393 32.2305 -75.0928 49.9883 -120.678 49.9883
s-88.4395 -17.7578 -120.678 -49.9883c-19.5244 -19.5234 -33.9453 -43.3662 -42.1465 -69.4775h26.291c2.59473 0 5.04395 -1.17773 6.66504 -3.2002l1.43555 -1.79102c6.7666 18.8252 17.5781 36.0107 31.8975 50.3301c25.7803 25.7881 60.0674 39.9961 96.5381 39.9961
c36.4717 0 70.7588 -14.208 96.5381 -39.9961c53.2393 -53.2314 53.2393 -139.854 0 -193.084c-25.7803 -25.7881 -60.0674 -39.9873 -96.5381 -39.9873c-36.4717 0 -70.7588 14.208 -96.5381 39.9961c-8.84863 8.83984 -16.4102 18.7988 -22.4941 29.585
c-2.30371 4.10449 -0.852539 9.30957 3.25098 11.6221c4.12109 2.31348 9.30957 0.854492 11.6221 -3.25098c5.31641 -9.4375 11.9385 -18.1504 19.6865 -25.8896c22.5615 -22.5625 52.5566 -34.9951 84.4707 -34.9951s61.9092 12.4248 84.4707 34.9873
c46.583 46.583 46.583 122.367 0 168.95c-22.5615 22.5625 -52.5566 34.9951 -84.4707 34.9951s-61.9092 -12.4326 -84.4707 -34.9951c-15.1133 -15.1035 -25.7539 -33.8506 -31.0869 -54.374l17.2539 -21.5635h13.4053c1.91992 19.5586 10.4619 37.7002 24.5596 51.8057
c33.2705 33.2627 87.4072 33.2627 120.678 0c33.2715 -33.2803 33.2715 -87.415 0 -120.678c-16.6309 -16.6396 -38.4854 -24.9512 -60.3389 -24.9512c-21.8545 0 -43.6992 8.31152 -60.3389 24.9512c-6.89551 6.89453 -12.501 14.8047 -16.6572 23.5088
c-2.03906 4.24902 -0.239258 9.34375 4.01074 11.3828c4.23242 2.02344 9.34473 0.231445 11.3838 -4.01855c3.32715 -6.96289 7.80762 -13.2861 13.3281 -18.8076c26.6152 -26.6143 69.9307 -26.6143 96.5469 0c26.6143 26.6152 26.6143 69.9229 0 96.5469
c-26.6152 26.6064 -69.9229 26.5977 -96.5469 0c-10.8623 -10.8721 -17.5439 -24.7471 -19.3955 -39.7402h34.7559c1.49316 5.83691 4.40332 11.2207 8.77246 15.5986c6.4502 6.44336 15.0264 10.001 24.1406 10.001c9.12207 0 17.6885 -3.55762 24.1318 -10.001
c13.3125 -13.3027 13.3213 -34.9697 0.00878906 -48.2725c-6.44238 -6.43555 -15.0186 -9.99316 -24.1406 -9.99316c-4.70996 0 -8.5332 3.81348 -8.5332 8.5332c0 4.70996 3.81445 8.53223 8.5332 8.53223c4.56641 0 8.8584 1.77441 12.0752 5
c3.2168 3.21777 4.99219 7.50098 4.99219 12.0664c0 4.55664 -1.77539 8.83984 -5.00098 12.0664c-3.22559 3.22559 -7.50977 5.00098 -12.0664 5.00098s-8.83984 -1.77539 -12.0664 -5.00098c-1.05762 -1.05859 -1.90234 -2.27051 -2.63672 -3.5332h14.7031
c4.70996 0 8.5332 -3.82324 8.5332 -8.5332s-3.82324 -8.5332 -8.5332 -8.5332h-25.5742h-0.0166016h-0.0175781h-50.0391c-0.383789 -0.0507812 -0.716797 -0.229492 -1.11719 -0.229492h-0.0263672c-0.401367 0 -0.750977 0.178711 -1.13477 0.229492h-20.3691
l-31.5732 -39.4668c-1.62207 -2.02246 -4.07129 -3.2002 -6.66504 -3.2002h-76.7998c-3.07227 0 -5.91406 1.65527 -7.42383 4.32617c-1.51953 2.67969 -1.47656 5.96484 0.110352 8.60156l17.8438 29.7393h-44.6641c-4.70996 0 -8.5332 3.82324 -8.5332 8.5332z
M128.056 200.533c4.70996 0 8.5332 -3.82324 8.5332 -8.5332s-3.82324 -8.5332 -8.5332 -8.5332h-37.8369l-15.3594 -25.5996h57.6338l27.2979 34.1328l-27.2979 34.1328h-57.6338l15.3594 -25.5996h37.8369zM25.6562 157.867c4.70996 0 8.5332 -3.82324 8.5332 -8.5332
s-3.82324 -8.5332 -8.5332 -8.5332h-17.0674c-4.70996 0 -8.5332 3.82324 -8.5332 8.5332s3.82324 8.5332 8.5332 8.5332h17.0674z" />
    <glyph glyph-name="uniF15A" unicode="&#xf15a;" 
d="M449.449 228.276c27.9648 -16.6377 23.1309 -36.2754 23.1309 -36.2754s4.83203 -19.6367 -23.1328 -36.2773l-340.703 -214.662c-10.0703 -5.99414 -22.5801 -5 -32.0254 -5c-37.7812 0 -37.6162 30.3164 -37.6162 36.5645v438.75
c0 7.39062 -0.167969 36.5625 37.6162 36.5625c9.44531 0 21.9531 0.999023 32.0254 -4.99805z" />
    <glyph glyph-name="uniF126" unicode="&#xf126;" 
d="M345.154 287.522c10.5518 0 19.1035 -8.55273 19.1035 -19.1045s-8.55176 -19.1035 -19.1035 -19.1035h-178.309c-10.5518 0 -19.1035 8.55176 -19.1035 19.1035s8.55176 19.1045 19.1035 19.1045h178.309zM345.154 211.104c10.5518 0 19.1035 -8.55176 19.1035 -19.1035
s-8.55176 -19.1035 -19.1035 -19.1035h-178.309c-10.5518 0 -19.1035 8.55176 -19.1035 19.1035s8.55176 19.1035 19.1035 19.1035h178.309zM345.154 134.687c10.5518 0 19.1035 -8.55176 19.1035 -19.1035s-8.55176 -19.1045 -19.1035 -19.1045h-178.309
c-10.5518 0 -19.1035 8.55273 -19.1035 19.1045s8.55176 19.1035 19.1035 19.1035h178.309zM256 448c138.699 0 251.542 -112.844 251.542 -251.542s-112.843 -251.542 -251.542 -251.542c-28.873 0 -56.6582 4.71875 -82.6777 14.042l-129.917 -22.6709
c-1.0957 -0.198242 -2.19727 -0.287109 -3.28613 -0.287109c-5.76953 0 -11.3096 2.61719 -14.9707 7.24121c-4.34961 5.48926 -5.34961 12.9141 -2.59863 19.3584l34.292 80.4043c-14.4355 18.4814 -26.2295 39.1963 -35.1328 61.7461
c-11.4561 29.3574 -17.251 60.1924 -17.251 91.708c0 138.698 112.844 251.542 251.542 251.542zM256 -16.876c117.633 0 213.333 95.7021 213.333 213.334s-95.7002 213.333 -213.333 213.333s-213.333 -95.7012 -213.333 -213.333
c0 -26.7461 4.91602 -52.9072 14.6152 -77.749c8.8125 -22.333 20.9766 -42.5518 36.1201 -60.0264c4.78125 -5.52051 5.99902 -13.291 3.13281 -20.0088l-25.04 -58.708l100.344 17.5117c3.40137 0.605469 6.90918 0.255859 10.1377 -0.986328
c23.0781 -8.87109 47.9844 -13.3672 74.0234 -13.3672z" />
    <glyph glyph-name="uniF168" unicode="&#xf168;" 
d="M251.422 221.381l135.835 135.835l-2.92969 21.9766l68.7549 68.7549l6.90723 -52.0107l52.0107 -6.90723l-68.7549 -68.7549l-21.9766 2.93066l-135.836 -135.836c1.15137 -4.08105 1.7793 -8.47656 1.7793 -12.9766c0 -26.8945 -21.8721 -48.7666 -48.7666 -48.7666
c-26.8955 0 -48.7676 21.8721 -48.7676 48.7666c0 26.8955 21.8721 48.7666 48.7676 48.7666c4.5 0 8.79004 -0.62793 12.9766 -1.77832zM243.678 268.055c-25.7441 1.46484 -51.9062 -7.63965 -71.5811 -27.3135c-36.627 -36.6279 -36.627 -96.0693 0 -132.696
c36.6279 -36.6279 96.0693 -36.6279 132.696 0c19.6738 19.6738 28.7793 45.9414 27.3135 71.6846l40.1855 40.1855c16.7441 -49.3945 5.44238 -106.114 -33.9062 -145.463c-55.1504 -55.1504 -144.731 -55.1504 -199.882 0s-55.1504 144.73 0 199.881
c39.2441 39.3486 96.0693 50.6514 145.359 33.9072zM406.932 254.45l38.3018 38.5107c52.2207 -91.0449 39.4531 -209.3 -38.3018 -287.055c-93.0342 -93.1387 -243.939 -93.1387 -337.078 0c-93.1377 93.0342 -93.1377 243.939 0 337.077
c77.7549 77.7549 196.01 90.5225 287.056 38.3018l-38.4072 -38.4062c-69.2783 32.8604 -154.567 20.7207 -211.916 -36.627c-72.8359 -72.8369 -72.8359 -190.882 0 -263.719c72.8369 -72.8359 190.882 -72.8359 263.718 0
c57.3486 57.3486 69.5928 142.639 36.6279 211.917z" />
    <glyph glyph-name="uniF11E" unicode="&#xf11e;" 
d="M437.02 117.02c48.3516 -48.3525 74.9805 -112.64 74.9805 -181.02h-40c0 119.103 -96.8975 216 -216 216s-216 -96.8975 -216 -216h-40c0 68.3799 26.6289 132.667 74.9814 181.02c27.8828 27.8828 61.0703 48.5234 97.2803 61.0186
c-38.7832 26.7109 -64.2617 71.4141 -64.2617 121.962c0 81.6074 66.3926 148 148 148s148 -66.3926 148 -148c0 -50.5479 -25.4785 -95.251 -64.2607 -121.962c36.21 -12.4951 69.3975 -33.1357 97.2803 -61.0186zM256 192c59.5508 0 108 48.4482 108 108
s-48.4492 108 -108 108s-108 -48.4482 -108 -108s48.4492 -108 108 -108z" />
    <glyph glyph-name="uniF14C" unicode="&#xf14c;" 
d="M481.438 184.459c3.17578 -3.1748 4.7627 -7.54102 5.16016 -11.5098c0 -4.7627 -1.58789 -8.73242 -4.7627 -11.9072l-194.48 -194.48c-3.57227 -3.17578 -7.54199 -4.7627 -11.9072 -4.7627c-4.36621 0 -8.73242 1.58691 -11.9072 4.7627l-232.979 232.979
c-3.57227 3.57227 -5.16016 8.33496 -4.7627 13.4951l19.8447 174.635c0.793945 7.93848 7.14355 13.8916 14.6855 14.6855l174.635 19.8447c4.76367 0.397461 9.92285 -1.19043 13.4951 -4.7627zM59.9316 217.401l158.363 -158.362l170.666 170.666l-158.362 158.363
l-153.203 -17.4639zM275.448 1.88574l170.666 170.666l-33.3389 33.3398l-170.667 -170.667zM217.104 320.198c11.9072 -11.9072 18.6543 -27.7832 18.6543 -44.4521c0 -17.0674 -6.74707 -32.9434 -18.6543 -44.8496
c-12.3037 -11.9072 -27.7822 -18.6543 -44.8496 -18.6543c-17.0664 0 -32.9424 6.74707 -44.8496 18.6543c-24.6074 24.6074 -24.6074 64.6943 0 89.3018c12.3047 11.9072 27.7832 18.6543 44.8496 18.6543c17.0674 0 32.9434 -6.74707 44.8496 -18.6543zM193.687 254.313
c5.55664 5.95312 8.73242 13.0977 8.33496 21.4326c0 7.9375 -3.1748 15.4785 -8.73145 21.0352s-13.0977 8.73145 -21.0361 8.73145c-7.9375 0 -15.4785 -3.1748 -21.0352 -8.73145c-11.5098 -11.9072 -11.5098 -30.958 0 -42.4678
c11.5098 -11.1133 31.3545 -11.1133 42.4678 0z" />
    <glyph glyph-name="uniF123" unicode="&#xf123;" 
d="M256 159.611c153.837 0 238.56 -72.7832 238.559 -204.926c0 -10.3203 -8.36426 -18.6855 -18.6855 -18.6855h-439.747c-10.3213 0 -18.6855 8.36523 -18.6855 18.6855c0 132.149 84.7227 204.926 238.56 204.926zM55.4922 -26.6279h401.022
c-7.35547 98.8057 -74.7197 148.866 -200.515 148.866s-193.158 -50.0605 -200.508 -148.866zM256 448c70.665 0 123.951 -54.3584 123.951 -126.443c0 -74.1836 -55.6045 -134.533 -123.951 -134.533s-123.951 60.3496 -123.951 134.54
c0 72.0781 53.2861 126.437 123.951 126.437zM256 224.389c47.7432 0 86.5791 43.5889 86.5791 97.168c0 50.7832 -37.2158 89.0713 -86.5791 89.0713c-50.166 0 -86.5791 -37.46 -86.5791 -89.0713c0 -53.5791 38.8359 -97.168 86.5791 -97.168z" />
    <glyph glyph-name="uniF16B" unicode="&#xf16b;" 
d="M506.896 383.583c3.36523 1.2627 6.41602 -2.52441 4.52246 -5.57422l-225.633 -372.06c-3.68262 -5.89062 -11.4658 -7.57324 -17.1465 -3.68164l-62.168 42.3926l-63.1143 -41.8662c-4.94336 -3.26074 -11.5703 0.31543 -11.5703 6.20605v86.6768l286.539 213.958
l-338.504 -178.509l-74.5801 50.9121c-8.09961 5.4707 -6.52148 17.8828 2.73535 21.249z" />
    </font>
</defs>
</svg>
